<?xml version="1.0" standalone="no"?>
<!DOCTYPE svg PUBLIC "-//W3C//DTD SVG 1.1//EN" "http://www.w3.org/Graphics/SVG/1.1/DTD/svg11.dtd" >
<svg xmlns="http://www.w3.org/2000/svg">
<metadata>
This is a custom SVG font generated by IcoMoon.
<iconset grid="16"></iconset>
</metadata>
<defs>
<font id="flaticons-solid" horiz-adv-x="512" >
<font-face units-per-em="512" ascent="480" descent="-32" />
<missing-glyph horiz-adv-x="512" />
<glyph unicode="&#xe000;" d="M 32.00-32.00l 64.00,0.00 c 17.664,0.00, 32.00,14.304, 32.00,32.00l0.00,64.00 c0.00,17.696-14.336,32.00-32.00,32.00L 32.00,96.00 c-17.664,0.00-32.00-14.304-32.00-32.00l0.00-64.00 
		C0.00-17.696, 14.336-32.00, 32.00-32.00zM 224.00-32.00l 64.00,0.00 c 17.696,0.00, 32.00,14.304, 32.00,32.00l0.00,64.00 c0.00,17.696-14.304,32.00-32.00,32.00L 224.00,96.00 c-17.664,0.00-32.00-14.304-32.00-32.00l0.00-64.00 
		C 192.00-17.696, 206.336-32.00, 224.00-32.00zM 416.00-32.00l 64.00,0.00 c 17.696,0.00, 32.00,14.304, 32.00,32.00l0.00,64.00 c0.00,17.696-14.304,32.00-32.00,32.00l-64.00,0.00 c-17.696,0.00-32.00-14.304-32.00-32.00l0.00-64.00 
		C 384.00-17.696, 398.304-32.00, 416.00-32.00zM 32.00,352.00l 64.00,0.00 c 17.664,0.00, 32.00,14.336, 32.00,32.00L 128.00,448.00 c0.00,17.664-14.336,32.00-32.00,32.00L 32.00,480.00 C 14.336,480.00,0.00,465.664,0.00,448.00l0.00-64.00 C0.00,366.336, 14.336,352.00, 32.00,352.00zM 224.00,352.00l 64.00,0.00 c 17.696,0.00, 32.00,14.336, 32.00,32.00L 320.00,448.00 c0.00,17.664-14.304,32.00-32.00,32.00L 224.00,480.00 C 206.336,480.00, 192.00,465.664, 192.00,448.00l0.00-64.00 C 192.00,366.336, 206.336,352.00, 224.00,352.00zM 384.00,448.00l0.00-64.00 c0.00-17.664, 14.304-32.00, 32.00-32.00l 64.00,0.00 c 17.696,0.00, 32.00,14.336, 32.00,32.00L 512.00,448.00 c0.00,17.664-14.304,32.00-32.00,32.00l-64.00,0.00 
		C 398.304,480.00, 384.00,465.664, 384.00,448.00zM 32.00,160.00l 64.00,0.00 c 17.664,0.00, 32.00,14.304, 32.00,32.00L 128.00,256.00 c0.00,17.664-14.336,32.00-32.00,32.00L 32.00,288.00 C 14.336,288.00,0.00,273.664,0.00,256.00l0.00-64.00 C0.00,174.304, 14.336,160.00, 32.00,160.00z
		M 224.00,160.00l 64.00,0.00 c 17.696,0.00, 32.00,14.304, 32.00,32.00L 320.00,256.00 c0.00,17.664-14.304,32.00-32.00,32.00L 224.00,288.00 C 206.336,288.00, 192.00,273.664, 192.00,256.00l0.00-64.00 C 192.00,174.304, 206.336,160.00, 224.00,160.00z
		M 416.00,160.00l 64.00,0.00 c 17.696,0.00, 32.00,14.304, 32.00,32.00L 512.00,256.00 c0.00,17.664-14.304,32.00-32.00,32.00l-64.00,0.00 c-17.696,0.00-32.00-14.336-32.00-32.00l0.00-64.00 
		C 384.00,174.304, 398.304,160.00, 416.00,160.00z"  />
<glyph unicode="&#xe001;" d="M 480.00,480.00L 32.00,480.00 C 14.336,480.00,0.00,465.696,0.00,448.00l0.00-448.00 
	c0.00-17.696, 14.336-32.00, 32.00-32.00l 448.00,0.00 c 17.696,0.00, 32.00,14.304, 32.00,32.00L 512.00,448.00 C 512.00,465.696, 497.696,480.00, 480.00,480.00z M 192.00,96.00L 128.00,96.00 l0.00,64.00 l 64.00,0.00 L 192.00,96.00 z M 192.00,192.00L 128.00,192.00 L 128.00,256.00 l 64.00,0.00 L 192.00,192.00 z M 192.00,288.00L 128.00,288.00 L 128.00,352.00 l 64.00,0.00 L 192.00,288.00 z M 288.00,96.00L 224.00,96.00 l0.00,64.00 l 64.00,0.00 
	L 288.00,96.00 z M 288.00,192.00L 224.00,192.00 L 224.00,256.00 l 64.00,0.00 L 288.00,192.00 z M 288.00,288.00L 224.00,288.00 L 224.00,352.00 l 64.00,0.00 L 288.00,288.00 z M 384.00,96.00l-64.00,0.00 l0.00,64.00 l 64.00,0.00 L 384.00,96.00 z M 384.00,192.00l-64.00,0.00 L 320.00,256.00 l 64.00,0.00 L 384.00,192.00 z M 384.00,288.00l-64.00,0.00 L 320.00,352.00 l 64.00,0.00 L 384.00,288.00 z"  />
<glyph unicode="&#xe002;" d="M0.00,448.00l0.00-160.00 c0.00-17.696, 14.336-32.00, 32.00-32.00l 160.00,0.00 c 17.664,0.00, 32.00,14.304, 32.00,32.00L 224.00,448.00 
		c0.00,17.696-14.336,32.00-32.00,32.00L 32.00,480.00 C 14.336,480.00,0.00,465.696,0.00,448.00zM 32.00,192.00c-17.664,0.00-32.00-14.304-32.00-32.00l0.00-160.00 c0.00-17.696, 14.336-32.00, 32.00-32.00l 160.00,0.00 
		c 17.664,0.00, 32.00,14.304, 32.00,32.00l0.00,160.00 c0.00,17.696-14.336,32.00-32.00,32.00L 32.00,192.00 zM 320.00,192.00c-17.696,0.00-32.00-14.304-32.00-32.00l0.00-160.00 c0.00-17.696, 14.304-32.00, 32.00-32.00l 160.00,0.00 
		c 17.696,0.00, 32.00,14.304, 32.00,32.00l0.00,160.00 c0.00,17.696-14.304,32.00-32.00,32.00L 320.00,192.00 zM 320.00,480.00C 302.304,480.00, 288.00,465.696, 288.00,448.00l0.00-160.00 c0.00-17.696, 14.304-32.00, 32.00-32.00l 160.00,0.00 
		c 17.696,0.00, 32.00,14.304, 32.00,32.00L 512.00,448.00 c0.00,17.696-14.304,32.00-32.00,32.00L 320.00,480.00 z"  />
<glyph unicode="&#xe003;" d="M 480.00,480.00L 32.00,480.00 C 14.304,480.00,0.00,465.696,0.00,448.00l0.00-448.00 
	c0.00-17.696, 14.304-32.00, 32.00-32.00l 448.00,0.00 c 17.696,0.00, 32.00,14.304, 32.00,32.00L 512.00,448.00 C 512.00,465.696, 497.696,480.00, 480.00,480.00z M 224.00,112.00C 224.00,103.168, 216.832,96.00, 208.00,96.00l-64.00,0.00 
	C 135.168,96.00, 128.00,103.168, 128.00,112.00l0.00,64.00 C 128.00,184.832, 135.168,192.00, 144.00,192.00l 64.00,0.00 C 216.832,192.00, 224.00,184.832, 224.00,176.00L 224.00,112.00 z M 224.00,272.00C 224.00,263.168, 216.832,256.00, 208.00,256.00l-64.00,0.00 
	C 135.168,256.00, 128.00,263.168, 128.00,272.00l0.00,64.00 C 128.00,344.832, 135.168,352.00, 144.00,352.00l 64.00,0.00 C 216.832,352.00, 224.00,344.832, 224.00,336.00L 224.00,272.00 z M 384.00,112.00c0.00-8.832-7.168-16.00-16.00-16.00l-64.00,0.00 
	C 295.168,96.00, 288.00,103.168, 288.00,112.00l0.00,64.00 C 288.00,184.832, 295.168,192.00, 304.00,192.00l 64.00,0.00 C 376.832,192.00, 384.00,184.832, 384.00,176.00L 384.00,112.00 z M 384.00,272.00C 384.00,263.168, 376.832,256.00, 368.00,256.00l-64.00,0.00 
	C 295.168,256.00, 288.00,263.168, 288.00,272.00l0.00,64.00 C 288.00,344.832, 295.168,352.00, 304.00,352.00l 64.00,0.00 C 376.832,352.00, 384.00,344.832, 384.00,336.00L 384.00,272.00 z"  />
<glyph unicode="&#xe004;" d="M 32.00-32.00l 288.00,0.00 c 17.696,0.00, 32.00,14.304, 32.00,32.00L 352.00,288.00 c0.00,17.696-14.304,32.00-32.00,32.00L 32.00,320.00 
		C 14.304,320.00,0.00,305.696,0.00,288.00l0.00-288.00 C0.00-17.696, 14.304-32.00, 32.00-32.00zM 384.00,384.00c 17.696,0.00, 32.00-14.336, 32.00-32.00l0.00-224.00 l 64.00,0.00 c 17.696,0.00, 32.00,14.304, 32.00,32.00L 512.00,448.00 
		c0.00,17.696-14.304,32.00-32.00,32.00L 192.00,480.00 C 174.304,480.00, 160.00,465.696, 160.00,448.00l0.00-64.00 L 384.00,384.00 z"  />
<glyph unicode="&#xe005;" d="M 320.00,320.00L 32.00,320.00 C 14.304,320.00,0.00,305.696,0.00,288.00l0.00-288.00 c0.00-17.696, 14.304-32.00, 32.00-32.00l 288.00,0.00 c 17.696,0.00, 32.00,14.304, 32.00,32.00L 352.00,288.00 C 352.00,305.696, 337.696,320.00, 320.00,320.00
		z M 160.00,80.00C 160.00,71.168, 152.832,64.00, 144.00,64.00l-32.00,0.00 C 103.168,64.00, 96.00,71.168, 96.00,80.00l0.00,32.00 C 96.00,120.832, 103.168,128.00, 112.00,128.00l 32.00,0.00 C 152.832,128.00, 160.00,120.832, 160.00,112.00L 160.00,80.00 z
		 M 160.00,176.00C 160.00,167.168, 152.832,160.00, 144.00,160.00l-32.00,0.00 C 103.168,160.00, 96.00,167.168, 96.00,176.00l0.00,32.00 C 96.00,216.832, 103.168,224.00, 112.00,224.00l 32.00,0.00 C 152.832,224.00, 160.00,216.832, 160.00,208.00L 160.00,176.00 z M 256.00,80.00
		C 256.00,71.168, 248.832,64.00, 240.00,64.00l-32.00,0.00 C 199.168,64.00, 192.00,71.168, 192.00,80.00l0.00,32.00 C 192.00,120.832, 199.168,128.00, 208.00,128.00l 32.00,0.00 C 248.832,128.00, 256.00,120.832, 256.00,112.00L 256.00,80.00 z M 256.00,176.00
		C 256.00,167.168, 248.832,160.00, 240.00,160.00l-32.00,0.00 C 199.168,160.00, 192.00,167.168, 192.00,176.00l0.00,32.00 C 192.00,216.832, 199.168,224.00, 208.00,224.00l 32.00,0.00 C 248.832,224.00, 256.00,216.832, 256.00,208.00L 256.00,176.00 zM 480.00,480.00L 192.00,480.00 C 174.304,480.00, 160.00,465.696, 160.00,448.00l0.00-64.00 l 224.00,0.00 c 17.696,0.00, 32.00-14.336, 32.00-32.00l0.00-224.00 l 64.00,0.00 c 17.696,0.00, 32.00,14.304, 32.00,32.00L 512.00,448.00 
		C 512.00,465.696, 497.696,480.00, 480.00,480.00z"  />
<glyph unicode="&#xe006;" d="M 352.00,352.00L 32.00,352.00 C 14.304,352.00,0.00,337.696,0.00,320.00l0.00-320.00 c0.00-17.696, 14.304-32.00, 32.00-32.00l 320.00,0.00 c 17.696,0.00, 32.00,14.304, 32.00,32.00L 384.00,320.00 
		C 384.00,337.696, 369.696,352.00, 352.00,352.00z M 288.00,144.00C 288.00,135.168, 280.832,128.00, 272.00,128.00L 224.00,128.00 l0.00-48.00 C 224.00,71.168, 216.832,64.00, 208.00,64.00l-32.00,0.00 C 167.168,64.00, 160.00,71.168, 160.00,80.00L 160.00,128.00 L 112.00,128.00 
		C 103.168,128.00, 96.00,135.168, 96.00,144.00l0.00,32.00 C 96.00,184.832, 103.168,192.00, 112.00,192.00L 160.00,192.00 L 160.00,240.00 C 160.00,248.832, 167.168,256.00, 176.00,256.00l 32.00,0.00 C 216.832,256.00, 224.00,248.832, 224.00,240.00L 224.00,192.00 l 48.00,0.00 
		C 280.832,192.00, 288.00,184.832, 288.00,176.00L 288.00,144.00 zM 160.00,480.00C 142.304,480.00, 128.00,465.696, 128.00,448.00l0.00-32.00 l 288.00,0.00 c 17.696,0.00, 32.00-14.336, 32.00-32.00l0.00-288.00 l 32.00,0.00 c 17.696,0.00, 32.00,14.304, 32.00,32.00L 512.00,448.00 c0.00,17.696-14.304,32.00-32.00,32.00L 160.00,480.00 
		z"  />
<glyph unicode="&#xe007;" d="M 480.00,480.00L 32.00,480.00 C 14.40,480.00,0.00,465.60,0.00,448.00l0.00-448.00 c0.00-17.60, 14.40-32.00, 32.00-32.00
	l 448.00,0.00 c 17.60,0.00, 32.00,14.40, 32.00,32.00L 512.00,448.00 C 512.00,465.60, 497.60,480.00, 480.00,480.00z M 64.00,416.00l 64.00,0.00 l0.00-64.00 L 64.00,352.00 L 64.00,416.00 z M 448.00,352.00L 192.00,352.00 L 192.00,416.00 l 256.00,0.00 L 448.00,352.00 z"  />
<glyph unicode="&#xe008;" d="M 480.00,480.00L 32.00,480.00 C 14.40,480.00,0.00,465.60,0.00,448.00l0.00-448.00 
	c0.00-17.60, 14.40-32.00, 32.00-32.00l 448.00,0.00 c 17.60,0.00, 32.00,14.40, 32.00,32.00L 512.00,448.00 C 512.00,465.60, 497.60,480.00, 480.00,480.00z M 128.00,352.00L 64.00,352.00 L 64.00,416.00 l 64.00,0.00 L 128.00,352.00 z M 352.00,144.00c0.00-8.832-7.168-16.00-16.00-16.00l-160.00,0.00 
	C 167.168,128.00, 160.00,135.168, 160.00,144.00l0.00,32.00 C 160.00,184.832, 167.168,192.00, 176.00,192.00l 160.00,0.00 C 344.832,192.00, 352.00,184.832, 352.00,176.00L 352.00,144.00 z M 448.00,352.00L 192.00,352.00 L 192.00,416.00 l 256.00,0.00 L 448.00,352.00 z"  />
<glyph unicode="&#xe009;" d="M 512.00,448.00c0.00,17.664-14.304,32.00-32.00,32.00L 32.00,480.00 
	C 14.304,480.00,0.00,465.664,0.00,448.00l0.00-448.00 c0.00-17.696, 14.304-32.00, 32.00-32.00l 448.00,0.00 c 17.696,0.00, 32.00,14.304, 32.00,32.00L 512.00,448.00 z M 128.32,352.00l-64.00,0.00 L 64.32,416.00 l 64.00,0.00 L 128.32,352.00 z M 352.00,144.00c0.00-8.832-6.848-16.00-15.68-16.00L 288.00,128.00 
	l0.00-48.00 C 288.00,71.168, 281.152,64.00, 272.32,64.00l-32.00,0.00 C 231.456,64.00, 224.00,71.168, 224.00,80.00L 224.00,128.00 L 176.32,128.00 C 167.456,128.00, 160.00,135.168, 160.00,144.00l0.00,32.00 C 160.00,184.832, 167.456,192.00, 176.32,192.00L 224.00,192.00 L 224.00,240.00 
	C 224.00,248.832, 231.456,256.00, 240.32,256.00l 32.00,0.00 C 281.152,256.00, 288.00,248.832, 288.00,240.00L 288.00,192.00 l 48.32,0.00 C 345.152,192.00, 352.00,184.832, 352.00,176.00L 352.00,144.00 z M 448.00,352.00L 192.00,352.00 L 192.00,416.00 l 256.00,0.00 L 448.00,352.00 z"  />
<glyph unicode="&#xe00a;" d="M 480.00,480.00L 32.00,480.00 C 14.304,480.00,0.00,465.664,0.00,448.00l0.00-448.00 
	c0.00-17.696, 14.304-32.00, 32.00-32.00l 448.00,0.00 c 17.696,0.00, 32.00,14.304, 32.00,32.00L 512.00,448.00 C 512.00,465.664, 497.696,480.00, 480.00,480.00z M 128.00,352.00L 64.00,352.00 L 64.00,416.00 l 64.00,0.00 L 128.00,352.00 z M 347.232,113.952
	c 6.24-6.24, 6.24-16.384,0.00-22.624l-22.624-22.624c-6.24-6.24-16.384-6.24-22.624,0.00l-46.048,46.048l-45.888-45.888
	c-6.24-6.24-16.384-6.24-22.624,0.00l-22.624,22.624c-6.24,6.24-6.24,16.384,0.00,22.624L 210.656,160.00L 164.768,205.888
	c-6.24,6.24-6.24,16.384,0.00,22.624l 22.624,22.624c 6.24,6.24, 16.384,6.24, 22.624,0.00l 45.888-45.888l 46.048,46.048
	c 6.24,6.24, 16.384,6.24, 22.624,0.00l 22.624-22.624c 6.24-6.24, 6.24-16.384,0.00-22.624L 301.152,160.00L 347.232,113.952z M 448.00,352.00L 192.00,352.00 L 192.00,416.00 l 256.00,0.00 L 448.00,352.00 z"  />
<glyph unicode="&#xe00b;" d="M 480.00,480.00L 32.00,480.00 C 14.40,480.00,0.00,465.60,0.00,448.00l0.00-448.00 c0.00-17.60, 14.40-32.00, 32.00-32.00l 448.00,0.00 
		c 17.60,0.00, 32.00,14.40, 32.00,32.00L 512.00,448.00 C 512.00,465.60, 497.60,480.00, 480.00,480.00z M 80.00,448.00l 32.00,0.00 C 120.832,448.00, 128.00,440.832, 128.00,432.00l0.00-32.00 C 128.00,391.168, 120.832,384.00, 112.00,384.00l-32.00,0.00 C 71.168,384.00, 64.00,391.168, 64.00,400.00l0.00,32.00 
		C 64.00,440.832, 71.168,448.00, 80.00,448.00z"  />
<glyph unicode="&#xe00c;" d="M 480.00,480.00L 32.00,480.00 C 14.40,480.00,0.00,465.60,0.00,448.00l0.00-448.00 
	c0.00-17.60, 14.40-32.00, 32.00-32.00l 448.00,0.00 c 17.60,0.00, 32.00,14.40, 32.00,32.00L 512.00,448.00 C 512.00,465.60, 497.60,480.00, 480.00,480.00z M 128.00,400.00C 128.00,391.168, 120.832,384.00, 112.00,384.00l-32.00,0.00 C 71.168,384.00, 64.00,391.168, 64.00,400.00l0.00,32.00 
	C 64.00,440.832, 71.168,448.00, 80.00,448.00l 32.00,0.00 C 120.832,448.00, 128.00,440.832, 128.00,432.00L 128.00,400.00 z M 352.00,176.00c0.00-8.832-7.168-16.00-16.00-16.00l-160.00,0.00 C 167.168,160.00, 160.00,167.168, 160.00,176.00l0.00,32.00 
	C 160.00,216.832, 167.168,224.00, 176.00,224.00l 160.00,0.00 C 344.832,224.00, 352.00,216.832, 352.00,208.00L 352.00,176.00 z"  />
<glyph unicode="&#xe00d;" d="M 480.00,480.00L 32.00,480.00 C 14.40,480.00,0.00,465.60,0.00,448.00l0.00-448.00 
	c0.00-17.60, 14.40-32.00, 32.00-32.00l 448.00,0.00 c 17.60,0.00, 32.00,14.40, 32.00,32.00L 512.00,448.00 C 512.00,465.60, 497.60,480.00, 480.00,480.00z M 128.00,400.00C 128.00,391.168, 120.832,384.00, 112.00,384.00l-32.00,0.00 C 71.168,384.00, 64.00,391.168, 64.00,400.00l0.00,32.00 
	C 64.00,440.832, 71.168,448.00, 80.00,448.00l 32.00,0.00 C 120.832,448.00, 128.00,440.832, 128.00,432.00L 128.00,400.00 z M 352.00,176.00c0.00-8.832-7.168-16.00-16.00-16.00L 288.00,160.00 l0.00-48.00 C 288.00,103.168, 280.832,96.00, 272.00,96.00l-32.00,0.00 
	C 231.168,96.00, 224.00,103.168, 224.00,112.00L 224.00,160.00 L 176.00,160.00 C 167.168,160.00, 160.00,167.168, 160.00,176.00l0.00,32.00 C 160.00,216.832, 167.168,224.00, 176.00,224.00L 224.00,224.00 L 224.00,272.00 C 224.00,280.832, 231.168,288.00, 240.00,288.00l 32.00,0.00 
	C 280.832,288.00, 288.00,280.832, 288.00,272.00L 288.00,224.00 l 48.00,0.00 C 344.832,224.00, 352.00,216.832, 352.00,208.00L 352.00,176.00 z"  />
<glyph unicode="&#xe00e;" d="M 512.00,448.00c0.00,17.664-14.304,32.00-32.00,32.00L 32.00,480.00 
	C 14.304,480.00,0.00,465.664,0.00,448.00l0.00-448.00 c0.00-17.696, 14.304-32.00, 32.00-32.00l 448.00,0.00 c 17.696,0.00, 32.00,14.304, 32.00,32.00L 512.00,448.00 z M 128.256,400.00c0.00-8.832-7.168-16.00-16.00-16.00l-32.00,0.00 
	c-8.832,0.00-16.00,7.168-16.00,16.00l0.00,32.00 c0.00,8.832, 7.168,16.00, 16.00,16.00l 32.00,0.00 c 8.832,0.00, 16.00-7.168, 16.00-16.00L 128.256,400.00 z M 347.456,145.952
	c 6.24-6.24, 6.24-16.384,0.00-22.624l-22.624-22.624c-6.24-6.24-16.384-6.24-22.624,0.00l-46.048,46.048l-45.888-45.888
	c-6.24-6.24-16.384-6.24-22.624,0.00l-22.624,22.624c-6.24,6.24-6.24,16.384,0.00,22.624L 210.912,192.00L 165.024,237.888
	c-6.24,6.24-6.24,16.384,0.00,22.624l 22.624,22.624c 6.24,6.24, 16.384,6.24, 22.624,0.00l 45.888-45.888l 46.048,46.048
	c 6.24,6.24, 16.384,6.24, 22.624,0.00l 22.624-22.624c 6.24-6.24, 6.24-16.384,0.00-22.624L 301.408,192.00L 347.456,145.952z"  />
<glyph unicode="&#xe00f;" d="M 352.00,352.00L 32.00,352.00 C 14.40,352.00,0.00,337.60,0.00,320.00l0.00-320.00 c0.00-17.60, 14.40-32.00, 32.00-32.00l 320.00,0.00 
		c 17.60,0.00, 32.00,14.40, 32.00,32.00L 384.00,320.00 C 384.00,337.60, 369.60,352.00, 352.00,352.00z M 80.00,320.00l 32.00,0.00 C 120.832,320.00, 128.00,312.832, 128.00,304.00l0.00-32.00 C 128.00,263.168, 120.832,256.00, 112.00,256.00l-32.00,0.00 C 71.168,256.00, 64.00,263.168, 64.00,272.00l0.00,32.00 
		C 64.00,312.832, 71.168,320.00, 80.00,320.00zM 160.00,480.00C 142.40,480.00, 128.00,465.60, 128.00,448.00l0.00-64.00 l 256.00,0.00 c 17.696,0.00, 32.00-14.336, 32.00-32.00l0.00-256.00 l 64.00,0.00 
		c 17.60,0.00, 32.00,14.40, 32.00,32.00L 512.00,448.00 c0.00,17.60-14.40,32.00-32.00,32.00L 160.00,480.00 z"  />
<glyph unicode="&#xe010;" d="M 480.00,480.00L 32.00,480.00 C 14.40,480.00,0.00,465.60,0.00,448.00l0.00-448.00 c0.00-17.60, 14.40-32.00, 32.00-32.00
	l 448.00,0.00 c 17.60,0.00, 32.00,14.40, 32.00,32.00L 512.00,448.00 C 512.00,465.60, 497.60,480.00, 480.00,480.00z M 272.00,448.00l 32.00,0.00 C 312.832,448.00, 320.00,440.832, 320.00,432.00l0.00-32.00 C 320.00,391.168, 312.832,384.00, 304.00,384.00l-32.00,0.00 
	C 263.168,384.00, 256.00,391.168, 256.00,400.00l0.00,32.00 C 256.00,440.832, 263.168,448.00, 272.00,448.00z M 176.00,448.00l 32.00,0.00 C 216.832,448.00, 224.00,440.832, 224.00,432.00l0.00-32.00 C 224.00,391.168, 216.832,384.00, 208.00,384.00l-32.00,0.00 
	C 167.168,384.00, 160.00,391.168, 160.00,400.00l0.00,32.00 C 160.00,440.832, 167.168,448.00, 176.00,448.00z M 80.00,448.00l 32.00,0.00 C 120.832,448.00, 128.00,440.832, 128.00,432.00l0.00-32.00 C 128.00,391.168, 120.832,384.00, 112.00,384.00l-32.00,0.00 
	C 71.168,384.00, 64.00,391.168, 64.00,400.00l0.00,32.00 C 64.00,440.832, 71.168,448.00, 80.00,448.00z"  />
<glyph unicode="&#xe011;" d="M 480.00,480.00L 32.00,480.00 C 14.40,480.00,0.00,465.60,0.00,448.00l0.00-448.00 
	c0.00-17.60, 14.40-32.00, 32.00-32.00l 448.00,0.00 c 17.60,0.00, 32.00,14.40, 32.00,32.00L 512.00,448.00 C 512.00,465.60, 497.60,480.00, 480.00,480.00z M 256.00,432.00C 256.00,440.832, 263.168,448.00, 272.00,448.00l 32.00,0.00 C 312.832,448.00, 320.00,440.832, 320.00,432.00l0.00-32.00 
	C 320.00,391.168, 312.832,384.00, 304.00,384.00l-32.00,0.00 C 263.168,384.00, 256.00,391.168, 256.00,400.00L 256.00,432.00 z M 160.00,432.00C 160.00,440.832, 167.168,448.00, 176.00,448.00l 32.00,0.00 C 216.832,448.00, 224.00,440.832, 224.00,432.00l0.00-32.00 
	C 224.00,391.168, 216.832,384.00, 208.00,384.00l-32.00,0.00 C 167.168,384.00, 160.00,391.168, 160.00,400.00L 160.00,432.00 z M 128.00,400.00C 128.00,391.168, 120.832,384.00, 112.00,384.00l-32.00,0.00 C 71.168,384.00, 64.00,391.168, 64.00,400.00l0.00,32.00 
	C 64.00,440.832, 71.168,448.00, 80.00,448.00l 32.00,0.00 C 120.832,448.00, 128.00,440.832, 128.00,432.00L 128.00,400.00 z M 352.00,176.00c0.00-8.832-7.168-16.00-16.00-16.00l-160.00,0.00 C 167.168,160.00, 160.00,167.168, 160.00,176.00l0.00,32.00 
	C 160.00,216.832, 167.168,224.00, 176.00,224.00l 160.00,0.00 C 344.832,224.00, 352.00,216.832, 352.00,208.00L 352.00,176.00 z"  />
<glyph unicode="&#xe012;" d="M 480.00,480.00L 32.00,480.00 C 14.40,480.00,0.00,465.60,0.00,448.00l0.00-448.00 
	c0.00-17.60, 14.40-32.00, 32.00-32.00l 448.00,0.00 c 17.60,0.00, 32.00,14.40, 32.00,32.00L 512.00,448.00 C 512.00,465.60, 497.60,480.00, 480.00,480.00z M 256.00,432.00C 256.00,440.832, 263.168,448.00, 272.00,448.00l 32.00,0.00 C 312.832,448.00, 320.00,440.832, 320.00,432.00l0.00-32.00 
	C 320.00,391.168, 312.832,384.00, 304.00,384.00l-32.00,0.00 C 263.168,384.00, 256.00,391.168, 256.00,400.00L 256.00,432.00 z M 160.00,432.00C 160.00,440.832, 167.168,448.00, 176.00,448.00l 32.00,0.00 C 216.832,448.00, 224.00,440.832, 224.00,432.00l0.00-32.00 
	C 224.00,391.168, 216.832,384.00, 208.00,384.00l-32.00,0.00 C 167.168,384.00, 160.00,391.168, 160.00,400.00L 160.00,432.00 z M 128.00,400.00C 128.00,391.168, 120.832,384.00, 112.00,384.00l-32.00,0.00 C 71.168,384.00, 64.00,391.168, 64.00,400.00l0.00,32.00 
	C 64.00,440.832, 71.168,448.00, 80.00,448.00l 32.00,0.00 C 120.832,448.00, 128.00,440.832, 128.00,432.00L 128.00,400.00 z M 352.00,176.00c0.00-8.832-7.168-16.00-16.00-16.00L 288.00,160.00 l0.00-48.00 C 288.00,103.168, 280.832,96.00, 272.00,96.00l-32.00,0.00 
	C 231.168,96.00, 224.00,103.168, 224.00,112.00L 224.00,160.00 L 176.00,160.00 C 167.168,160.00, 160.00,167.168, 160.00,176.00l0.00,32.00 C 160.00,216.832, 167.168,224.00, 176.00,224.00L 224.00,224.00 L 224.00,272.00 C 224.00,280.832, 231.168,288.00, 240.00,288.00l 32.00,0.00 
	C 280.832,288.00, 288.00,280.832, 288.00,272.00L 288.00,224.00 l 48.00,0.00 C 344.832,224.00, 352.00,216.832, 352.00,208.00L 352.00,176.00 z"  />
<glyph unicode="&#xe013;" d="M 480.00,480.00L 32.00,480.00 C 14.40,480.00,0.00,465.60,0.00,448.00l0.00-448.00 c0.00-17.60, 14.40-32.00, 32.00-32.00l 448.00,0.00 c 17.60,0.00, 32.00,14.40, 32.00,32.00L 512.00,448.00 
	C 512.00,465.60, 497.60,480.00, 480.00,480.00z M 256.00,432.00C 256.00,440.832, 263.168,448.00, 272.00,448.00l 32.00,0.00 C 312.832,448.00, 320.00,440.832, 320.00,432.00l0.00-32.00 C 320.00,391.168, 312.832,384.00, 304.00,384.00l-32.00,0.00 C 263.168,384.00, 256.00,391.168, 256.00,400.00
	L 256.00,432.00 z M 128.00,400.00C 128.00,391.168, 120.832,384.00, 112.00,384.00l-32.00,0.00 C 71.168,384.00, 64.00,391.168, 64.00,400.00l0.00,32.00 C 64.00,440.832, 71.168,448.00, 80.00,448.00l 32.00,0.00 C 120.832,448.00, 128.00,440.832, 128.00,432.00L 128.00,400.00 z M 160.00,432.00
	C 160.00,440.832, 167.168,448.00, 176.00,448.00l 32.00,0.00 C 216.832,448.00, 224.00,440.832, 224.00,432.00l0.00-32.00 C 224.00,391.168, 216.832,384.00, 208.00,384.00l-32.00,0.00 C 167.168,384.00, 160.00,391.168, 160.00,400.00L 160.00,432.00 z M 347.232,145.952
	c 6.24-6.24, 6.24-16.384,0.00-22.624l-22.624-22.624c-6.24-6.24-16.384-6.24-22.624,0.00l-46.048,46.048l-45.888-45.888
	c-6.24-6.24-16.384-6.24-22.624,0.00l-22.624,22.624c-6.24,6.24-6.24,16.384,0.00,22.624L 210.656,192.00L 164.768,237.888
	c-6.24,6.24-6.24,16.384,0.00,22.624l 22.624,22.624c 6.24,6.24, 16.384,6.24, 22.624,0.00l 45.888-45.888l 46.048,46.048
	c 6.24,6.24, 16.384,6.24, 22.624,0.00l 22.624-22.624c 6.24-6.24, 6.24-16.384,0.00-22.624L 301.152,192.00L 347.232,145.952z"  />
<glyph unicode="&#xe014;" d="M 480.00,416.00L 224.00,416.00 L 224.00,448.00 c0.00,17.60-14.40,32.00-32.00,32.00L 32.00,480.00 C 14.40,480.00,0.00,465.60,0.00,448.00l0.00-448.00 c0.00-17.60, 14.40-32.00, 32.00-32.00l 448.00,0.00 
	c 17.60,0.00, 32.00,14.40, 32.00,32.00L 512.00,384.00 C 512.00,401.60, 497.60,416.00, 480.00,416.00z"  />
<glyph unicode="&#xe015;" d="M 480.00,416.00L 224.00,416.00 L 224.00,448.00 c0.00,17.60-14.40,32.00-32.00,32.00L 32.00,480.00 C 14.40,480.00,0.00,465.60,0.00,448.00l0.00-448.00 c0.00-17.60, 14.40-32.00, 32.00-32.00l 448.00,0.00 
	c 17.60,0.00, 32.00,14.40, 32.00,32.00L 512.00,384.00 C 512.00,401.60, 497.60,416.00, 480.00,416.00z M 352.00,176.00c0.00-8.832-7.168-16.00-16.00-16.00L 288.00,160.00 l0.00-48.00 C 288.00,103.168, 280.832,96.00, 272.00,96.00l-32.00,0.00 
	C 231.168,96.00, 224.00,103.168, 224.00,112.00L 224.00,160.00 L 176.00,160.00 C 167.168,160.00, 160.00,167.168, 160.00,176.00l0.00,32.00 C 160.00,216.832, 167.168,224.00, 176.00,224.00L 224.00,224.00 L 224.00,272.00 C 224.00,280.832, 231.168,288.00, 240.00,288.00l 32.00,0.00 
	C 280.832,288.00, 288.00,280.832, 288.00,272.00L 288.00,224.00 l 48.00,0.00 C 344.832,224.00, 352.00,216.832, 352.00,208.00L 352.00,176.00 z"  />
<glyph unicode="&#xe016;" d="M 480.00,416.00L 224.00,416.00 L 224.00,448.00 c0.00,17.60-14.40,32.00-32.00,32.00L 32.00,480.00 C 14.40,480.00,0.00,465.60,0.00,448.00l0.00-448.00 c0.00-17.60, 14.40-32.00, 32.00-32.00l 448.00,0.00 
	c 17.60,0.00, 32.00,14.40, 32.00,32.00L 512.00,384.00 C 512.00,401.60, 497.60,416.00, 480.00,416.00z M 352.00,176.00c0.00-8.832-7.168-16.00-16.00-16.00l-160.00,0.00 C 167.168,160.00, 160.00,167.168, 160.00,176.00l0.00,32.00 C 160.00,216.832, 167.168,224.00, 176.00,224.00
	l 160.00,0.00 C 344.832,224.00, 352.00,216.832, 352.00,208.00L 352.00,176.00 z"  />
<glyph unicode="&#xe017;" d="M 480.00,416.00L 224.00,416.00 L 224.00,448.00 c0.00,17.60-14.40,32.00-32.00,32.00L 32.00,480.00 
	C 14.40,480.00,0.00,465.60,0.00,448.00l0.00-448.00 c0.00-17.60, 14.40-32.00, 32.00-32.00l 448.00,0.00 c 17.60,0.00, 32.00,14.40, 32.00,32.00L 512.00,384.00 C 512.00,401.60, 497.60,416.00, 480.00,416.00z M 342.24,192.00L 288.00,192.00 l0.00-80.00 C 288.00,103.20, 280.832,96.00, 272.00,96.00
	l-32.00,0.00 C 231.168,96.00, 224.00,103.20, 224.00,112.00L 224.00,192.00 L 169.76,192.00 C 160.256,192.00, 157.152,200.448, 162.88,208.00l 82.784,106.432C 251.36,321.92, 260.64,321.824, 266.336,314.304L 349.12,208.00
	C 354.848,200.48, 351.744,192.00, 342.24,192.00z"  />
<glyph unicode="&#xe018;" d="M 480.00,416.00L 224.00,416.00 L 224.00,448.00 c0.00,17.60-14.40,32.00-32.00,32.00L 32.00,480.00 
	C 14.40,480.00,0.00,465.60,0.00,448.00l0.00-448.00 c0.00-17.60, 14.40-32.00, 32.00-32.00l 448.00,0.00 c 17.60,0.00, 32.00,14.40, 32.00,32.00L 512.00,384.00 C 512.00,401.60, 497.60,416.00, 480.00,416.00z M 349.12,208.00l-82.784-106.432
	c-5.728-7.488-14.976-7.392-20.672,0.128L 162.88,208.00C 157.152,215.52, 160.256,224.00, 169.76,224.00L 224.00,224.00 L 224.00,303.968 C 224.00,312.80, 231.168,320.00, 240.00,320.00l 32.00,0.00 
	C 280.832,320.00, 288.00,312.80, 288.00,303.968L 288.00,224.00 l 54.24,0.00 C 351.744,224.00, 354.848,215.552, 349.12,208.00z"  />
<glyph unicode="&#xe019;" d="M 480.00,416.00L 224.00,416.00 L 224.00,448.00 c0.00,17.60-14.40,32.00-32.00,32.00L 32.00,480.00 C 14.40,480.00,0.00,465.60,0.00,448.00l0.00-160.00 l0.00-192.00 l0.00-96.00 c0.00-17.60, 14.40-32.00, 32.00-32.00l 448.00,0.00 
	c 17.60,0.00, 32.00,14.40, 32.00,32.00l0.00,96.00 L 512.00,224.00 L 512.00,384.00 C 512.00,401.60, 497.60,416.00, 480.00,416.00z M 224.00,256.00L 224.00,288.00 c0.00,17.60-14.40,32.00-32.00,32.00L 64.00,320.00 L 64.00,416.00 l 96.00,0.00 l0.00-48.00 C 160.00,359.168, 167.168,352.00, 176.00,352.00L 224.00,352.00 l 224.00,0.00 l0.00-96.00 L 224.00,256.00 z"  />
<glyph unicode="&#xe01a;" d="M 480.00,416.00L 224.00,416.00 L 224.00,448.00 c0.00,17.60-14.40,32.00-32.00,32.00L 32.00,480.00 C 14.40,480.00,0.00,465.60,0.00,448.00l0.00-160.00 l0.00-192.00 l0.00-96.00 c0.00-17.60, 14.40-32.00, 32.00-32.00l 448.00,0.00 
	c 17.60,0.00, 32.00,14.40, 32.00,32.00l0.00,96.00 L 512.00,224.00 L 512.00,384.00 C 512.00,401.60, 497.60,416.00, 480.00,416.00z M 64.00,288.00L 64.00,416.00 l 96.00,0.00 l0.00-48.00 C 160.00,359.168, 167.168,352.00, 176.00,352.00L 448.00,352.00 l0.00-64.00 L 64.00,288.00 z"  />
<glyph unicode="&#xe01b;" d="M 32.00-6.40C 32.00-24.00, 46.40-32.00, 64.00-32.00l 384.00,0.00 c 17.60,0.00, 32.00,8.00, 32.00,25.60l 64.00,278.40C 544.00,280.832, 536.832,288.00, 528.00,288.00l-544.00,0.00 
		C-24.832,288.00-32.00,280.832-32.00,272.00L 32.00-6.40zM 195.20,480.00L 64.00,480.00 C 46.40,480.00, 32.00,462.40, 32.00,444.80l0.00-76.80 C 32.00,359.168, 39.168,352.00, 48.00,352.00l 416.00,0.00 C 472.832,352.00, 480.00,359.168, 480.00,368.00L 480.00,384.00 
		c0.00,17.664-14.304,32.00-32.00,32.00L 224.00,416.00 L 224.00,444.80 C 224.00,462.40, 212.80,480.00, 195.20,480.00z"  />
<glyph unicode="&#xe01c;" d="M 368.00,352.00l 96.00,0.00 c 8.832,0.00, 10.944,5.056, 4.672,11.328l-105.376,105.376C 357.056,474.944, 352.00,472.832, 352.00,464.00l0.00-96.00 
		C 352.00,359.168, 359.168,352.00, 368.00,352.00zM 464.00,320.00l-128.00,0.00 C 327.168,320.00, 320.00,327.168, 320.00,336.00l0.00,128.00 C 320.00,472.832, 312.832,480.00, 304.00,480.00L 64.00,480.00 C 46.304,480.00, 32.00,465.696, 32.00,448.00l0.00-448.00 
		c0.00-17.696, 14.304-32.00, 32.00-32.00l 384.00,0.00 c 17.696,0.00, 32.00,14.304, 32.00,32.00L 480.00,256.00 L 480.00,288.00 L 480.00,304.00 C 480.00,312.832, 472.832,320.00, 464.00,320.00z"  />
<glyph unicode="&#xe01d;" d="M 144.32,96.00l-96.00,0.00 c-8.832,0.00-10.944-5.056-4.672-11.328l 105.216-105.376C 155.104-26.944, 160.00-24.832, 160.00-16.00l0.00,96.00 
		C 160.00,88.832, 153.152,96.00, 144.32,96.00zM 448.32,480.00l-384.00,0.00 C 46.624,480.00, 32.00,465.696, 32.00,448.00l0.00-256.00 l0.00-32.00 l0.00-16.00 C 32.00,135.168, 39.456,128.00, 48.32,128.00l 128.00,0.00 C 185.152,128.00, 192.00,120.832, 192.00,112.00l0.00-128.00 
		C 192.00-24.832, 199.456-32.00, 208.32-32.00l 240.00,0.00 c 17.696,0.00, 31.68,14.304, 31.68,32.00L 480.00,448.00 C 480.00,465.696, 465.984,480.00, 448.32,480.00z M 384.00,240.00C 384.00,231.168, 376.832,224.00, 368.00,224.00l-224.00,0.00 
		C 135.168,224.00, 128.00,231.168, 128.00,240.00l0.00,32.00 C 128.00,280.832, 135.168,288.00, 144.00,288.00l 224.00,0.00 C 376.832,288.00, 384.00,280.832, 384.00,272.00L 384.00,240.00 z M 384.00,336.00C 384.00,327.168, 376.832,320.00, 368.00,320.00l-224.00,0.00 
		C 135.168,320.00, 128.00,327.168, 128.00,336.00l0.00,32.00 C 128.00,376.832, 135.168,384.00, 144.00,384.00l 224.00,0.00 C 376.832,384.00, 384.00,376.832, 384.00,368.00L 384.00,336.00 z"  />
<glyph unicode="&#xe01e;" d="M 368.00,352.00l 96.00,0.00 c 8.832,0.00, 10.944,5.056, 4.672,11.328l-105.376,105.376C 357.056,474.944, 352.00,472.832, 352.00,464.00l0.00-96.00 
		C 352.00,359.168, 359.168,352.00, 368.00,352.00zM 464.00,320.00l-128.00,0.00 C 327.168,320.00, 320.00,327.168, 320.00,336.00l0.00,128.00 C 320.00,472.832, 312.832,480.00, 304.00,480.00L 64.00,480.00 C 46.304,480.00, 32.00,465.696, 32.00,448.00l0.00-448.00 
		c0.00-17.696, 14.304-32.00, 32.00-32.00l 384.00,0.00 c 17.696,0.00, 32.00,14.304, 32.00,32.00L 480.00,304.00 C 480.00,312.832, 472.832,320.00, 464.00,320.00z M 96.00,368.00C 96.00,376.832, 103.168,384.00, 112.00,384.00l 128.00,0.00 C 248.832,384.00, 256.00,376.832, 256.00,368.00
		l0.00-32.00 C 256.00,327.168, 248.832,320.00, 240.00,320.00l-128.00,0.00 C 103.168,320.00, 96.00,327.168, 96.00,336.00L 96.00,368.00 z M 352.00,80.00c0.00-8.832-7.168-16.00-16.00-16.00l-224.00,0.00 C 103.168,64.00, 96.00,71.168, 96.00,80.00l0.00,32.00 
		C 96.00,120.832, 103.168,128.00, 112.00,128.00l 224.00,0.00 c 8.832,0.00, 16.00-7.168, 16.00-16.00L 352.00,80.00 z M 384.00,208.00C 384.00,199.168, 376.832,192.00, 368.00,192.00l-256.00,0.00 C 103.168,192.00, 96.00,199.168, 96.00,208.00l0.00,32.00 
		C 96.00,248.832, 103.168,256.00, 112.00,256.00l 256.00,0.00 C 376.832,256.00, 384.00,248.832, 384.00,240.00L 384.00,208.00 z"  />
<glyph unicode="&#xe01f;" d="M 112.00,384.00l 128.00,0.00 C 248.832,384.00, 256.00,376.832, 256.00,368.00l0.00-32.00 C 256.00,327.168, 248.832,320.00, 240.00,320.00l-128.00,0.00 C 103.168,320.00, 96.00,327.168, 96.00,336.00l0.00,32.00 
		C 96.00,376.832, 103.168,384.00, 112.00,384.00z M 400.00,32.00l-288.00,0.00 C 103.168,32.00, 96.00,39.168, 96.00,48.00l0.00,0.00C 96.00,56.832, 103.168,64.00, 112.00,64.00l 288.00,0.00 c 8.832,0.00, 16.00-7.168, 16.00-16.00l0.00,0.00
		C 416.00,39.168, 408.832,32.00, 400.00,32.00z M 400.00,96.00l-288.00,0.00 C 103.168,96.00, 96.00,103.168, 96.00,112.00l0.00,0.00C 96.00,120.832, 103.168,128.00, 112.00,128.00l 288.00,0.00 c 8.832,0.00, 16.00-7.168, 16.00-16.00
		l0.00,0.00C 416.00,103.168, 408.832,96.00, 400.00,96.00z M 400.00,160.00l-288.00,0.00 C 103.168,160.00, 96.00,167.168, 96.00,176.00l0.00,0.00C 96.00,184.832, 103.168,192.00, 112.00,192.00l 288.00,0.00 C 408.832,192.00, 416.00,184.832, 416.00,176.00l0.00,0.00
		C 416.00,167.168, 408.832,160.00, 400.00,160.00z M 400.00,224.00l-288.00,0.00 C 103.168,224.00, 96.00,231.168, 96.00,240.00l0.00,0.00C 96.00,248.832, 103.168,256.00, 112.00,256.00l 288.00,0.00 C 408.832,256.00, 416.00,248.832, 416.00,240.00l0.00,0.00
		C 416.00,231.168, 408.832,224.00, 400.00,224.00z M 336.00,320.00C 327.168,320.00, 320.00,327.168, 320.00,336.00l0.00,128.00 C 320.00,472.832, 312.832,480.00, 304.00,480.00L 64.00,480.00 C 46.304,480.00, 32.00,465.696, 32.00,448.00l0.00-448.00 
		c0.00-17.696, 14.304-32.00, 32.00-32.00l 384.00,0.00 c 17.696,0.00, 32.00,14.304, 32.00,32.00L 480.00,256.00 L 480.00,288.00 L 480.00,304.00 C 480.00,312.832, 472.832,320.00, 464.00,320.00L 336.00,320.00 zM 352.00,464.00l0.00-96.00 C 352.00,359.168, 359.168,352.00, 368.00,352.00l 96.00,0.00 c 8.832,0.00, 10.944,5.056, 4.672,11.328l-105.376,105.376
		C 357.056,474.944, 352.00,472.832, 352.00,464.00z"  />
<glyph unicode="&#xe020;" d="M 368.00,352.00l 96.00,0.00 c 8.832,0.00, 10.944,5.056, 4.672,11.328l-105.376,105.376C 357.056,474.944, 352.00,472.832, 352.00,464.00l0.00-96.00 
		C 352.00,359.168, 359.168,352.00, 368.00,352.00zM 464.00,320.00l-128.00,0.00 C 327.168,320.00, 320.00,327.168, 320.00,336.00l0.00,128.00 C 320.00,472.832, 312.832,480.00, 304.00,480.00l-128.00,0.00 C 167.168,480.00, 160.00,472.832, 160.00,464.00l0.00-352.00 
		C 160.00,103.168, 167.168,96.00, 176.00,96.00l 288.00,0.00 c 8.832,0.00, 16.00,7.168, 16.00,16.00l0.00,192.00 C 480.00,312.832, 472.832,320.00, 464.00,320.00zM 128.00,80.00L 128.00,384.00 L 48.00,384.00 C 39.168,384.00, 32.00,376.832, 32.00,368.00l0.00-384.00 C 32.00-24.832, 39.168-32.00, 48.00-32.00l 320.00,0.00 c 8.832,0.00, 16.00,7.168, 16.00,16.00L 384.00,64.00 
		L 144.00,64.00 C 135.168,64.00, 128.00,71.168, 128.00,80.00z"  />
<glyph unicode="&#xe021;" d="M 352.00,464.00l0.00-96.00 C 352.00,359.168, 359.168,352.00, 368.00,352.00l 96.00,0.00 c 8.832,0.00, 10.944,5.056, 4.672,11.328l-105.376,105.376
		C 357.056,474.944, 352.00,472.832, 352.00,464.00zM 176.00,192.00l 160.00,0.00 C 344.832,192.00, 352.00,184.832, 352.00,176.00l0.00-32.00 c0.00-8.832-7.168-16.00-16.00-16.00l-160.00,0.00 C 167.168,128.00, 160.00,135.168, 160.00,144.00l0.00,32.00 
		C 160.00,184.832, 167.168,192.00, 176.00,192.00z M 336.00,320.00C 327.168,320.00, 320.00,327.168, 320.00,336.00l0.00,128.00 C 320.00,472.832, 312.832,480.00, 304.00,480.00L 64.00,480.00 C 46.304,480.00, 32.00,465.696, 32.00,448.00l0.00-448.00 
		c0.00-17.696, 14.304-32.00, 32.00-32.00l 384.00,0.00 c 17.696,0.00, 32.00,14.304, 32.00,32.00L 480.00,256.00 L 480.00,288.00 L 480.00,304.00 C 480.00,312.832, 472.832,320.00, 464.00,320.00L 336.00,320.00 z"  />
<glyph unicode="&#xe022;" d="M 176.256,192.00L 224.00,192.00 L 224.00,240.00 C 224.00,248.832, 231.392,256.00, 240.256,256.00l 32.00,0.00 C 281.088,256.00, 288.00,248.832, 288.00,240.00L 288.00,192.00 l 48.256,0.00 C 345.088,192.00, 352.00,184.832, 352.00,176.00
		l0.00-32.00 c0.00-8.832-6.912-16.00-15.744-16.00L 288.00,128.00 l0.00-48.00 C 288.00,71.168, 281.088,64.00, 272.256,64.00l-32.00,0.00 C 231.392,64.00, 224.00,71.168, 224.00,80.00L 224.00,128.00 L 176.256,128.00 C 167.392,128.00, 160.00,135.168, 160.00,144.00
		l0.00,32.00 C 160.00,184.832, 167.392,192.00, 176.256,192.00z M 336.256,320.00C 327.392,320.00, 320.00,327.168, 320.00,336.00l0.00,128.00 C 320.00,472.832, 313.088,480.00, 304.256,480.00l-240.00,0.00 C 46.56,480.00, 32.00,465.696, 32.00,448.00l0.00-448.00 
		c0.00-17.696, 14.56-32.00, 32.256-32.00l 384.00,0.00 C 465.952-32.00, 480.00-17.696, 480.00,0.00L 480.00,256.00 L 480.00,288.00 L 480.00,304.00 C 480.00,312.832, 473.088,320.00, 464.256,320.00L 336.256,320.00 zM 352.00,464.00l0.00-96.00 C 352.00,359.168, 359.392,352.00, 368.256,352.00l 96.00,0.00 c 8.832,0.00, 10.944,5.056, 4.672,11.328l-105.504,105.376
		C 357.184,474.944, 352.00,472.832, 352.00,464.00z"  />
<glyph unicode="&#xe023;" d="M 464.00,320.00l-128.00,0.00 C 327.168,320.00, 320.00,327.168, 320.00,336.00l0.00,128.00 C 320.00,472.832, 312.832,480.00, 304.00,480.00L 64.00,480.00 C 46.304,480.00, 32.00,465.696, 32.00,448.00l0.00-448.00 
		c0.00-17.696, 14.304-32.00, 32.00-32.00l 384.00,0.00 c 17.696,0.00, 32.00,14.304, 32.00,32.00L 480.00,256.00 L 480.00,288.00 L 480.00,304.00 C 480.00,312.832, 472.832,320.00, 464.00,320.00z M 347.232,113.952c 6.24-6.24, 6.24-16.384,0.00-22.624
		l-22.624-22.624c-6.24-6.24-16.384-6.24-22.624,0.00l-46.048,46.048l-45.888-45.888c-6.24-6.24-16.384-6.24-22.624,0.00l-22.624,22.624
		c-6.24,6.24-6.24,16.384,0.00,22.624L 210.656,160.00L 164.768,205.888c-6.24,6.24-6.24,16.384,0.00,22.624l 22.624,22.624
		c 6.24,6.24, 16.384,6.24, 22.624,0.00l 45.888-45.888l 46.048,46.048c 6.24,6.24, 16.384,6.24, 22.624,0.00l 22.624-22.624
		c 6.24-6.24, 6.24-16.384,0.00-22.624L 301.152,160.00L 347.232,113.952zM 368.00,352.00l 96.00,0.00 c 8.832,0.00, 10.944,5.056, 4.672,11.328l-105.376,105.376C 357.056,474.944, 352.00,472.832, 352.00,464.00l0.00-96.00 
		C 352.00,359.168, 359.168,352.00, 368.00,352.00z"  />
<glyph unicode="&#xe024;" d="M 368.00,352.00l 96.00,0.00 c 8.832,0.00, 10.944,5.056, 4.672,11.328l-105.376,105.376C 357.056,474.944, 352.00,472.832, 352.00,464.00l0.00-96.00 
		C 352.00,359.168, 359.168,352.00, 368.00,352.00zM 464.00,320.00l-128.00,0.00 C 327.168,320.00, 320.00,327.168, 320.00,336.00l0.00,128.00 C 320.00,472.832, 312.832,480.00, 304.00,480.00L 64.00,480.00 C 46.304,480.00, 32.00,465.696, 32.00,448.00l0.00-448.00 
		c0.00-17.696, 14.304-32.00, 32.00-32.00l 384.00,0.00 c 17.696,0.00, 32.00,14.304, 32.00,32.00L 480.00,256.00 L 480.00,288.00 L 480.00,304.00 C 480.00,312.832, 472.832,320.00, 464.00,320.00z M 342.24,160.00L 288.00,160.00 l0.00-80.00 C 288.00,71.20, 280.832,64.00, 272.00,64.00l-32.00,0.00 
		C 231.168,64.00, 224.00,71.20, 224.00,80.00L 224.00,160.00 L 169.76,160.00 C 160.256,160.00, 157.152,168.448, 162.88,176.00l 82.784,106.432c 5.728,7.488, 14.976,7.392, 20.672-0.128L 349.12,176.00
		C 354.848,168.48, 351.744,160.00, 342.24,160.00z"  />
<glyph unicode="&#xe025;" d="M 368.00,352.00l 96.00,0.00 c 8.832,0.00, 10.944,5.056, 4.672,11.328l-105.376,105.376C 357.056,474.944, 352.00,472.832, 352.00,464.00l0.00-96.00 
		C 352.00,359.168, 359.168,352.00, 368.00,352.00zM 464.00,320.00l-128.00,0.00 C 327.168,320.00, 320.00,327.168, 320.00,336.00l0.00,128.00 C 320.00,472.832, 312.832,480.00, 304.00,480.00L 64.00,480.00 C 46.304,480.00, 32.00,465.696, 32.00,448.00l0.00-448.00 
		c0.00-17.696, 14.304-32.00, 32.00-32.00l 384.00,0.00 c 17.696,0.00, 32.00,14.304, 32.00,32.00L 480.00,256.00 L 480.00,288.00 L 480.00,304.00 C 480.00,312.832, 472.832,320.00, 464.00,320.00z M 169.76,192.00L 224.00,192.00 L 224.00,272.00 C 224.00,280.832, 231.168,288.00, 240.00,288.00l 32.00,0.00 
		C 280.832,288.00, 288.00,280.832, 288.00,272.00L 288.00,192.00 l 54.24,0.00 c 9.504,0.00, 12.608-8.448, 6.88-16.00l-82.784-106.432c-5.728-7.488-14.976-7.36-20.672,0.128L 162.88,176.00
		C 157.152,183.52, 160.256,192.00, 169.76,192.00z"  />
<glyph unicode="&#xe026;" d="M 368.00,352.00l 96.00,0.00 c 8.832,0.00, 10.944,5.056, 4.672,11.328l-105.376,105.376C 357.056,474.944, 352.00,472.832, 352.00,464.00l0.00-96.00 
		C 352.00,359.168, 359.168,352.00, 368.00,352.00zM 464.00,320.00l-128.00,0.00 C 327.168,320.00, 320.00,327.168, 320.00,336.00l0.00,128.00 C 320.00,472.832, 312.832,480.00, 304.00,480.00L 64.00,480.00 C 46.304,480.00, 32.00,465.696, 32.00,448.00l0.00-448.00 
		c0.00-17.696, 14.304-32.00, 32.00-32.00l 384.00,0.00 c 17.696,0.00, 32.00,14.304, 32.00,32.00L 480.00,256.00 L 480.00,288.00 L 480.00,304.00 C 480.00,312.832, 472.832,320.00, 464.00,320.00z M 256.00,105.76L 256.00,160.00 L 144.00,160.00 C 135.168,160.00, 128.00,167.168, 128.00,176.00l0.00,32.00 
		C 128.00,216.832, 135.168,224.00, 144.00,224.00L 256.00,224.00 L 256.00,278.24 C 256.00,287.744, 264.448,290.848, 272.00,285.12l 106.432-82.784c 7.488-5.728, 7.36-14.976-0.16-20.672L 272.00,98.88
		C 264.48,93.152, 256.00,96.256, 256.00,105.76z"  />
<glyph unicode="&#xe027;" d="M 368.00,352.00l 96.00,0.00 c 8.832,0.00, 10.944,5.056, 4.672,11.328l-105.376,105.376C 357.056,474.944, 352.00,472.832, 352.00,464.00l0.00-96.00 
		C 352.00,359.168, 359.168,352.00, 368.00,352.00zM 464.00,320.00l-128.00,0.00 C 327.168,320.00, 320.00,327.168, 320.00,336.00l0.00,128.00 C 320.00,472.832, 312.832,480.00, 304.00,480.00L 64.00,480.00 C 46.304,480.00, 32.00,465.696, 32.00,448.00l0.00-448.00 
		c0.00-17.696, 14.304-32.00, 32.00-32.00l 384.00,0.00 c 17.696,0.00, 32.00,14.304, 32.00,32.00L 480.00,256.00 L 480.00,288.00 L 480.00,304.00 C 480.00,312.832, 472.832,320.00, 464.00,320.00z M 256.00,278.24L 256.00,224.00 l 112.00,0.00 C 376.832,224.00, 384.00,216.832, 384.00,208.00l0.00-32.00 
		c0.00-8.832-7.168-16.00-16.00-16.00L 256.00,160.00 l0.00-54.24 c0.00-9.504-8.448-12.608-16.00-6.88L 133.568,181.664c-7.488,5.728-7.36,14.976, 0.16,20.672L 240.00,285.12
		C 247.52,290.848, 256.00,287.744, 256.00,278.24z"  />
<glyph unicode="&#xe028;" d="M 320.00,480.00L 288.00,480.00 c0.00,32.00-14.304,32.00-32.00,32.00S 224.00,512.00, 224.00,480.00L 192.00,480.00 C 171.328,480.00, 160.00,465.12, 160.00,446.464
		l0.00-48.00 C 160.00,389.60, 167.168,384.00, 176.00,384.00l 160.00,0.00 C 344.832,384.00, 352.00,389.60, 352.00,398.464l0.00,48.00 C 352.00,465.12, 343.328,480.00, 320.00,480.00zM 384.00,448.00l0.00-65.536 l0.00-16.00 C 384.00,357.60, 376.832,352.00, 368.00,352.00L 160.00,352.00 L 144.00,352.00 
		C 135.168,352.00, 128.00,357.60, 128.00,366.464L 128.00,448.00 L 64.00,448.00 C 46.304,448.00, 32.00,432.128, 32.00,414.464l0.00-416.00 C 32.00-19.264, 46.304-32.00, 64.00-32.00l 384.00,0.00 c 17.696,0.00, 32.00,12.736, 32.00,30.432l0.00,416.00 
		C 480.00,432.128, 465.696,448.00, 448.00,448.00L 384.00,448.00 z"  />
<glyph unicode="&#xe029;" d="M 384.00,448.00l0.00-81.536 
	C 384.00,357.60, 376.832,352.00, 368.00,352.00l-224.00,0.00 C 135.168,352.00, 128.00,357.60, 128.00,366.464L 128.00,448.00 L 64.00,448.00 C 46.40,448.00, 32.00,432.032, 32.00,414.464l0.00-416.00 C 32.00-19.136, 46.40-32.00, 64.00-32.00l 384.00,0.00 
	c 17.60,0.00, 32.00,12.864, 32.00,30.432l0.00,416.00 C 480.00,432.032, 465.60,448.00, 448.00,448.00L 384.00,448.00 z M 352.00,176.00c0.00-8.832-7.168-16.00-16.00-16.00l-160.00,0.00 C 167.168,160.00, 160.00,167.168, 160.00,176.00l0.00,32.00 
	C 160.00,216.832, 167.168,224.00, 176.00,224.00l 160.00,0.00 C 344.832,224.00, 352.00,216.832, 352.00,208.00L 352.00,176.00 z M 320.00,480.00L 288.00,480.00 c0.00,32.00-14.304,32.00-32.00,32.00S 224.00,512.00, 224.00,480.00L 192.00,480.00 C 171.328,480.00, 160.00,465.12, 160.00,446.464l0.00-48.00 
	C 160.00,389.60, 167.168,384.00, 176.00,384.00l 160.00,0.00 C 344.832,384.00, 352.00,389.60, 352.00,398.464l0.00,48.00 C 352.00,465.12, 343.328,480.00, 320.00,480.00z"  />
<glyph unicode="&#xe02a;" d="M 384.00,448.00l0.00-81.536 C 384.00,357.60, 376.832,352.00, 368.00,352.00
	l-224.00,0.00 C 135.168,352.00, 128.00,357.60, 128.00,366.464L 128.00,448.00 L 64.00,448.00 C 46.40,448.00, 32.00,432.032, 32.00,414.464l0.00-416.00 C 32.00-19.136, 46.40-32.00, 64.00-32.00l 384.00,0.00 c 17.60,0.00, 32.00,12.864, 32.00,30.432l0.00,416.00 
	C 480.00,432.032, 465.60,448.00, 448.00,448.00L 384.00,448.00 z M 176.00,224.00L 224.00,224.00 L 224.00,270.464 C 224.00,279.296, 231.168,288.00, 240.00,288.00l 32.00,0.00 C 280.832,288.00, 288.00,279.296, 288.00,270.464L 288.00,224.00 l 48.00,0.00 C 344.832,224.00, 352.00,215.296, 352.00,206.464l0.00-32.00 
	C 352.00,165.632, 344.832,160.00, 336.00,160.00L 288.00,160.00 l0.00-49.568 C 288.00,101.632, 280.832,96.00, 272.00,96.00l-32.00,0.00 C 231.168,96.00, 224.00,101.632, 224.00,110.432L 224.00,160.00 L 176.00,160.00 C 167.168,160.00, 160.00,165.632, 160.00,174.432l0.00,32.00 
	C 160.00,215.296, 167.168,224.00, 176.00,224.00z M 320.00,480.00L 288.00,480.00 c0.00,32.00-14.304,32.00-32.00,32.00S 224.00,512.00, 224.00,480.00L 192.00,480.00 C 171.328,480.00, 160.00,465.12, 160.00,446.464l0.00-48.00 C 160.00,389.60, 167.168,384.00, 176.00,384.00l 160.00,0.00 
	C 344.832,384.00, 352.00,389.60, 352.00,398.464l0.00,48.00 C 352.00,465.12, 343.328,480.00, 320.00,480.00z"  />
<glyph unicode="&#xe02b;" d="M 384.00,448.00l0.00-81.536 
	C 384.00,357.60, 376.832,352.00, 368.00,352.00l-224.00,0.00 C 135.168,352.00, 128.00,357.60, 128.00,366.464L 128.00,448.00 L 64.00,448.00 C 46.40,448.00, 32.00,432.032, 32.00,414.464l0.00-416.00 C 32.00-19.136, 46.40-32.00, 64.00-32.00l 384.00,0.00 
	c 17.60,0.00, 32.00,12.864, 32.00,30.432l0.00,416.00 C 480.00,432.032, 465.60,448.00, 448.00,448.00L 384.00,448.00 z M 347.232,144.384c 6.24-6.24, 6.24-16.384,0.00-22.624l-22.624-22.624
	c-6.24-6.24-16.384-6.24-22.624,0.00l-46.048,46.048l-45.888-45.888c-6.24-6.24-16.384-6.24-22.624,0.00l-22.624,22.624
	c-6.24,6.24-6.24,16.384,0.00,22.624l 45.888,45.888L 164.768,236.32c-6.24,6.24-6.24,16.384,0.00,22.624l 22.624,22.624
	c 6.24,6.24, 16.384,6.24, 22.624,0.00l 45.888-45.888l 46.048,46.048C 308.224,288.00, 318.336,288.00, 324.608,281.76l 22.624-22.624
	c 6.24-6.24, 6.24-16.384,0.00-22.624l-46.048-46.08L 347.232,144.384z M 320.00,480.00L 288.00,480.00 c0.00,32.00-14.304,32.00-32.00,32.00S 224.00,512.00, 224.00,480.00L 192.00,480.00 C 171.328,480.00, 160.00,465.12, 160.00,446.464l0.00-48.00 
	C 160.00,389.60, 167.168,384.00, 176.00,384.00l 160.00,0.00 C 344.832,384.00, 352.00,389.60, 352.00,398.464l0.00,48.00 C 352.00,465.12, 343.328,480.00, 320.00,480.00z"  />
<glyph unicode="&#xe02c;" d="M 320.00,480.00L 288.00,480.00 c0.00,32.00-14.304,32.00-32.00,32.00S 224.00,512.00, 224.00,480.00L 192.00,480.00 C 171.328,480.00, 160.00,465.12, 160.00,446.464
		l0.00-48.00 C 160.00,389.60, 167.168,384.00, 176.00,384.00l 160.00,0.00 C 344.832,384.00, 352.00,389.60, 352.00,398.464l0.00,48.00 C 352.00,465.12, 343.328,480.00, 320.00,480.00zM 384.00,448.00l0.00-81.536 C 384.00,357.60, 376.832,352.00, 368.00,352.00l-224.00,0.00 C 135.168,352.00, 128.00,357.60, 128.00,366.464L 128.00,448.00 L 64.00,448.00 C 46.40,448.00, 32.00,432.032, 32.00,414.464l0.00-416.00 
		C 32.00-19.136, 46.40-32.00, 64.00-32.00l 384.00,0.00 c 17.60,0.00, 32.00,12.864, 32.00,30.432l0.00,416.00 C 480.00,432.032, 465.60,448.00, 448.00,448.00L 384.00,448.00 z M 379.808,238.56l-142.176-143.136
		c-5.568-5.60-14.56-5.60-20.128,0.00L 132.16,176.736c-5.536,5.632-5.536,14.688,0.00,20.256l 20.128,20.256c 5.568,5.60, 14.528,5.60, 20.096,0.00
		l 55.20-50.976l 112.064,112.768c 5.568,5.568, 14.528,5.568, 20.096,0.00l 20.096-20.256C 385.376,253.216, 385.376,244.192, 379.808,238.56z"  />
<glyph unicode="&#xe02d;" d="M 320.00,480.00L 288.00,480.00 c0.00,32.00-14.304,32.00-32.00,32.00S 224.00,512.00, 224.00,480.00L 192.00,480.00 C 171.328,480.00, 160.00,465.12, 160.00,446.464
		l0.00-48.00 C 160.00,389.60, 167.168,384.00, 176.00,384.00l 160.00,0.00 C 344.832,384.00, 352.00,389.60, 352.00,398.464l0.00,48.00 C 352.00,465.12, 343.328,480.00, 320.00,480.00zM 384.00,448.00l0.00-81.536 C 384.00,357.60, 376.832,352.00, 368.00,352.00l-224.00,0.00 C 135.168,352.00, 128.00,357.60, 128.00,366.464L 128.00,448.00 L 64.00,448.00 C 46.40,448.00, 32.00,432.032, 32.00,414.464l0.00-416.00 
		C 32.00-19.136, 46.40-32.00, 64.00-32.00l 384.00,0.00 c 17.60,0.00, 32.00,12.864, 32.00,30.432l0.00,416.00 C 480.00,432.032, 465.60,448.00, 448.00,448.00L 384.00,448.00 z M 342.24,160.00L 288.00,160.00 l0.00-81.536 C 288.00,69.632, 280.832,64.00, 272.00,64.00l-32.00,0.00 
		C 231.168,64.00, 224.00,69.632, 224.00,78.464L 224.00,160.00 L 169.76,160.00 C 160.256,160.00, 157.152,167.648, 162.88,175.232L 245.664,281.28c 5.728,7.488, 14.976,7.20, 20.672-0.32l 82.784-105.632
		C 354.848,167.808, 351.744,160.00, 342.24,160.00z"  />
<glyph unicode="&#xe02e;" d="M 448.00,448.00l-64.00,0.00 l0.00-65.536 l0.00-16.00 C 384.00,357.60, 376.832,352.00, 368.00,352.00L 160.00,352.00 L 144.00,352.00 
		C 135.168,352.00, 128.00,357.60, 128.00,366.464L 128.00,448.00 L 64.00,448.00 C 46.304,448.00, 32.00,432.128, 32.00,414.464l0.00-416.00 C 32.00-19.264, 46.304-32.00, 64.00-32.00l 384.00,0.00 c 17.696,0.00, 32.00,12.736, 32.00,30.432l0.00,416.00 
		C 480.00,432.128, 465.696,448.00, 448.00,448.00z M 384.00,48.00c0.00-8.832-7.168-16.00-16.00-16.00l-224.00,0.00 C 135.168,32.00, 128.00,39.168, 128.00,48.00l0.00,32.00 C 128.00,88.832, 135.168,96.00, 144.00,96.00l 224.00,0.00 
		c 8.832,0.00, 16.00-7.168, 16.00-16.00L 384.00,48.00 z M 384.00,144.00c0.00-8.832-7.168-16.00-16.00-16.00l-224.00,0.00 C 135.168,128.00, 128.00,135.168, 128.00,144.00l0.00,32.00 C 128.00,184.832, 135.168,192.00, 144.00,192.00l 224.00,0.00 
		C 376.832,192.00, 384.00,184.832, 384.00,176.00L 384.00,144.00 z M 384.00,240.00C 384.00,231.168, 376.832,224.00, 368.00,224.00l-224.00,0.00 C 135.168,224.00, 128.00,231.168, 128.00,240.00l0.00,32.00 C 128.00,280.832, 135.168,288.00, 144.00,288.00l 224.00,0.00 
		C 376.832,288.00, 384.00,280.832, 384.00,272.00L 384.00,240.00 zM 176.00,384.00l 160.00,0.00 C 344.832,384.00, 352.00,389.60, 352.00,398.464l0.00,48.00 
		C 352.00,465.12, 343.328,480.00, 320.00,480.00L 288.00,480.00 c0.00,32.00-14.304,32.00-32.00,32.00S 224.00,512.00, 224.00,480.00L 192.00,480.00 C 171.328,480.00, 160.00,465.12, 160.00,446.464l0.00-48.00 C 160.00,389.60, 167.168,384.00, 176.00,384.00z"  />
<glyph unicode="&#xe02f;" d="M 448.00,448.00l-64.00,0.00 l0.00-65.536 l0.00-16.00 C 384.00,357.60, 376.832,352.00, 368.00,352.00L 160.00,352.00 L 144.00,352.00 
		C 135.168,352.00, 128.00,357.60, 128.00,366.464L 128.00,448.00 L 64.00,448.00 C 46.304,448.00, 32.00,432.128, 32.00,414.464l0.00-416.00 C 32.00-19.264, 46.304-32.00, 64.00-32.00l 384.00,0.00 c 17.696,0.00, 32.00,12.736, 32.00,30.432l0.00,416.00 
		C 480.00,432.128, 465.696,448.00, 448.00,448.00z M 384.00,112.00c0.00-8.832-7.168-16.00-16.00-16.00l-224.00,0.00 C 135.168,96.00, 128.00,103.168, 128.00,112.00l0.00,32.00 C 128.00,152.832, 135.168,160.00, 144.00,160.00l 224.00,0.00 
		c 8.832,0.00, 16.00-7.168, 16.00-16.00L 384.00,112.00 z M 384.00,208.00C 384.00,199.168, 376.832,192.00, 368.00,192.00l-224.00,0.00 C 135.168,192.00, 128.00,199.168, 128.00,208.00l0.00,32.00 C 128.00,248.832, 135.168,256.00, 144.00,256.00l 224.00,0.00 
		C 376.832,256.00, 384.00,248.832, 384.00,240.00L 384.00,208.00 zM 176.00,384.00l 160.00,0.00 C 344.832,384.00, 352.00,389.60, 352.00,398.464l0.00,48.00 
		C 352.00,465.12, 343.328,480.00, 320.00,480.00L 288.00,480.00 c0.00,32.00-14.304,32.00-32.00,32.00S 224.00,512.00, 224.00,480.00L 192.00,480.00 C 171.328,480.00, 160.00,465.12, 160.00,446.464l0.00-48.00 C 160.00,389.60, 167.168,384.00, 176.00,384.00z"  />
<glyph unicode="&#xe030;" d="M 384.00,448.00l0.00-81.536 C 384.00,357.60, 376.832,352.00, 368.00,352.00l-224.00,0.00 C 135.168,352.00, 128.00,357.60, 128.00,366.464L 128.00,448.00 L 64.00,448.00 
	C 46.40,448.00, 32.00,432.032, 32.00,414.464l0.00-416.00 C 32.00-19.136, 46.40-32.00, 64.00-32.00l 384.00,0.00 c 17.60,0.00, 32.00,12.864, 32.00,30.432l0.00,416.00 C 480.00,432.032, 465.60,448.00, 448.00,448.00L 384.00,448.00 z M 128.00,224.00l 192.00,0.00 l0.00-32.00 L 128.00,192.00 L 128.00,224.00 z M 320.00,64.00L 128.00,64.00 
	l0.00,32.00 l 192.00,0.00 L 320.00,64.00 z M 384.00,128.00L 128.00,128.00 l0.00,32.00 l 256.00,0.00 L 384.00,128.00 z M 384.00,256.00L 128.00,256.00 L 128.00,288.00 l 256.00,0.00 L 384.00,256.00 z M 320.00,480.00L 288.00,480.00 c0.00,32.00-14.304,32.00-32.00,32.00S 224.00,512.00, 224.00,480.00L 192.00,480.00 C 171.328,480.00, 160.00,465.12, 160.00,446.464l0.00-48.00 C 160.00,389.60, 167.168,384.00, 176.00,384.00
	l 160.00,0.00 C 344.832,384.00, 352.00,389.60, 352.00,398.464l0.00,48.00 C 352.00,465.12, 343.328,480.00, 320.00,480.00z"  />
<glyph unicode="&#xe031;" d="M 256.32-33.568c-8.192,0.00-16.384,3.904-22.624,10.144L 147.072,64.00L 32.32,64.00 C 14.624,64.00,0.00,76.736,0.00,94.432l0.00,352.00 
		C0.00,464.128, 14.624,480.00, 32.32,480.00l 448.00,0.00 C 497.984,480.00, 512.00,464.128, 512.00,446.464l0.00-352.00 C 512.00,76.736, 497.984,64.00, 480.32,64.00l-114.752,0.00 l-86.624-87.392
		C 272.672-29.664, 264.512-33.568, 256.32-33.568z"  />
<glyph unicode="&#xe032;" d="M 480.00,480.00L 32.00,480.00 C 14.304,480.00,0.00,464.128,0.00,446.464l0.00-352.00 C0.00,76.736, 14.304,64.00, 32.00,64.00l 114.752,0.00 
	l 86.624-87.392C 239.616-29.664, 247.808-33.152, 256.00-33.152s 16.384,3.712, 22.624,9.984L 365.248,64.00L 480.00,64.00 c 17.696,0.00, 32.00,12.736, 32.00,30.432l0.00,352.00 
	C 512.00,464.128, 497.696,480.00, 480.00,480.00z M 192.00,270.464c0.00-8.832-7.168-16.00-16.00-16.00l-32.00,0.00 c-8.832,0.00-16.00,7.168-16.00,16.00l0.00,32.00 c0.00,8.832, 7.168,16.00, 16.00,16.00l 32.00,0.00 
	c 8.832,0.00, 16.00-7.168, 16.00-16.00L 192.00,270.464 z M 288.00,270.464c0.00-8.832-7.168-16.00-16.00-16.00l-32.00,0.00 c-8.832,0.00-16.00,7.168-16.00,16.00l0.00,32.00 c0.00,8.832, 7.168,16.00, 16.00,16.00
	l 32.00,0.00 c 8.832,0.00, 16.00-7.168, 16.00-16.00L 288.00,270.464 z M 384.00,270.464c0.00-8.832-7.168-16.00-16.00-16.00l-32.00,0.00 c-8.832,0.00-16.00,7.168-16.00,16.00l0.00,32.00 
	c0.00,8.832, 7.168,16.00, 16.00,16.00l 32.00,0.00 c 8.832,0.00, 16.00-7.168, 16.00-16.00L 384.00,270.464 z"  />
<glyph unicode="&#xe033;" d="M 480.00,480.00L 32.00,480.00 C 14.304,480.00,0.00,464.128,0.00,446.464l0.00-352.00 C0.00,76.736, 14.304,64.00, 32.00,64.00l 114.752,0.00 l 86.624-87.392
	C 239.616-29.664, 247.808-33.152, 256.00-33.152s 16.384,3.712, 22.624,9.984L 365.248,64.00L 480.00,64.00 c 17.696,0.00, 32.00,12.736, 32.00,30.432l0.00,352.00 C 512.00,464.128, 497.696,480.00, 480.00,480.00z
	 M 368.448,256.16l-98.176-105.60c-6.08-6.56-16.032-6.56-22.112,0.00l-98.176,105.60c-24.992,25.984-24.992,68.032,0.00,94.016
	c 24.992,25.952, 65.568,25.952, 90.592,0.00L 259.20,326.656l 18.624,23.52c 25.088,25.952, 65.632,25.952, 90.624,0.00C 393.44,324.192, 393.44,282.144, 368.448,256.16z"  />
<glyph unicode="&#xe034;" d="M 480.00,480.00L 32.00,480.00 C 14.304,480.00,0.00,464.128,0.00,446.464l0.00-352.00 C0.00,76.736, 14.304,64.00, 32.00,64.00l 114.752,0.00 l 86.624-87.392
	C 239.616-29.664, 247.808-33.152, 256.00-33.152s 16.384,3.712, 22.624,9.984L 365.248,64.00L 480.00,64.00 c 17.696,0.00, 32.00,12.736, 32.00,30.432l0.00,352.00 C 512.00,464.128, 497.696,480.00, 480.00,480.00z
	 M 384.00,208.00C 384.00,199.168, 376.832,192.00, 368.00,192.00l-224.00,0.00 C 135.168,192.00, 128.00,199.168, 128.00,208.00l0.00,32.00 C 128.00,248.832, 135.168,256.00, 144.00,256.00l 224.00,0.00 C 376.832,256.00, 384.00,248.832, 384.00,240.00L 384.00,208.00 z M 384.00,304.00
	C 384.00,295.168, 376.832,288.00, 368.00,288.00l-224.00,0.00 C 135.168,288.00, 128.00,295.168, 128.00,304.00l0.00,32.00 C 128.00,344.832, 135.168,352.00, 144.00,352.00l 224.00,0.00 C 376.832,352.00, 384.00,344.832, 384.00,336.00L 384.00,304.00 z"  />
<glyph unicode="&#xe035;" d="M 480.00,480.00L 32.00,480.00 C 14.40,480.00,0.00,463.744,0.00,445.76l0.00-351.328 C0.00,76.48, 14.40,64.00, 32.00,64.00l 32.00,0.00 l0.00-76.032 
	c0.00-18.016, 12.928-21.088, 28.864-13.28L 264.96,64.00L 480.00,64.00 c 17.60,0.00, 32.00,12.48, 32.00,30.432L 512.00,445.76 C 512.00,463.744, 497.60,480.00, 480.00,480.00z"  />
<glyph unicode="&#xe036;" d="M 480.256,480.00l-448.00,0.00 C 14.656,480.00,0.00,463.744,0.00,445.76l0.00-351.328 C0.00,76.48, 14.656,64.00, 32.256,64.00L 64.00,64.00 
	l0.00-76.032 c0.00-18.016, 13.056-21.088, 28.992-13.28L 265.216,64.00l 215.04,0.00 C 497.856,64.00, 512.00,76.48, 512.00,94.432L 512.00,445.76 C 512.00,463.744, 497.856,480.00, 480.256,480.00z M 192.256,270.464
	c0.00-8.832-7.168-16.00-16.00-16.00l-32.00,0.00 c-8.832,0.00-16.00,7.168-16.00,16.00l0.00,32.00 c0.00,8.832, 7.168,16.00, 16.00,16.00l 32.00,0.00 c 8.832,0.00, 16.00-7.168, 16.00-16.00L 192.256,270.464 z
	 M 288.256,270.464c0.00-8.832-7.168-16.00-16.00-16.00l-32.00,0.00 c-8.832,0.00-16.00,7.168-16.00,16.00l0.00,32.00 c0.00,8.832, 7.168,16.00, 16.00,16.00l 32.00,0.00 c 8.832,0.00, 16.00-7.168, 16.00-16.00
	L 288.256,270.464 z M 384.256,270.464c0.00-8.832-7.168-16.00-16.00-16.00l-32.00,0.00 c-8.832,0.00-16.00,7.168-16.00,16.00l0.00,32.00 c0.00,8.832, 7.168,16.00, 16.00,16.00l 32.00,0.00 
	c 8.832,0.00, 16.00-7.168, 16.00-16.00L 384.256,270.464 z"  />
<glyph unicode="&#xe037;" d="M 480.00,480.00L 32.00,480.00 C 14.40,480.00,0.00,463.744,0.00,445.76l0.00-351.328 C0.00,76.48, 14.40,64.00, 32.00,64.00l 32.00,0.00 l0.00-76.032 
	c0.00-18.016, 12.928-21.088, 28.864-13.28L 264.96,64.00L 480.00,64.00 c 17.60,0.00, 32.00,12.48, 32.00,30.432L 512.00,445.76 C 512.00,463.744, 497.60,480.00, 480.00,480.00z M 365.248,268.96l-98.144-105.60
	c-6.112-6.56-16.064-6.56-22.144,0.00l-98.176,105.60c-24.992,25.984-24.992,68.032,0.00,94.016c 24.992,25.952, 65.60,25.952, 90.624,0.00L 256.00,339.488
	l 18.624,23.488c 25.088,25.952, 65.632,25.952, 90.624,0.00C 390.24,337.024, 390.24,294.944, 365.248,268.96z"  />
<glyph unicode="&#xe038;" d="M 32.00,480.00C 14.40,480.00,0.00,463.744,0.00,445.76l0.00-351.328 C0.00,76.48, 14.40,64.00, 32.00,64.00l 32.00,0.00 l0.00-76.032 c0.00-18.016, 12.928-21.088, 28.864-13.28
		L 264.96,64.00L 480.00,64.00 c 17.60,0.00, 32.00,12.48, 32.00,30.432L 512.00,445.76 C 512.00,463.744, 497.60,480.00, 480.00,480.00L 32.00,480.00 z M 384.00,304.00C 384.00,295.168, 376.832,288.00, 368.00,288.00l-224.00,0.00 C 135.168,288.00, 128.00,295.168, 128.00,304.00l0.00,32.00 
		C 128.00,344.832, 135.168,352.00, 144.00,352.00l 224.00,0.00 C 376.832,352.00, 384.00,344.832, 384.00,336.00L 384.00,304.00 z M 384.00,208.00C 384.00,199.168, 376.832,192.00, 368.00,192.00l-224.00,0.00 C 135.168,192.00, 128.00,199.168, 128.00,208.00l0.00,32.00 
		C 128.00,248.832, 135.168,256.00, 144.00,256.00l 224.00,0.00 C 376.832,256.00, 384.00,248.832, 384.00,240.00L 384.00,208.00 z"  />
<glyph unicode="&#xe039;" d="M 480.00,480.00L 128.00,480.00 C 110.304,480.00, 96.00,464.128, 96.00,446.464L 96.00,416.00 l 64.00,0.00 l 256.00,0.00 c 17.696,0.00, 32.00-15.872, 32.00-33.536l0.00-128.00 L 448.00,192.00 l 32.00,0.00 c 17.696,0.00, 32.00,12.768, 32.00,30.464l0.00,224.00 
		C 512.00,464.128, 497.696,480.00, 480.00,480.00zM 384.00,384.00L 32.00,384.00 C 14.40,384.00,0.00,367.744,0.00,349.76l0.00-255.328 C0.00,76.48, 14.40,64.00, 32.00,64.00l 119.04,0.00 l 172.096-89.312
		C 339.072-33.12, 352.00-30.048, 352.00-12.032L 352.00,64.00 l 32.00,0.00 c 17.60,0.00, 32.00,12.48, 32.00,30.432L 416.00,349.76 C 416.00,367.744, 401.60,384.00, 384.00,384.00z"  />
<glyph unicode="&#xe03a;" d="M 480.00,480.00L 128.00,480.00 C 110.304,480.00, 96.00,464.128, 96.00,446.464L 96.00,416.00 l 64.00,0.00 l 256.00,0.00 c 17.696,0.00, 32.00-15.872, 32.00-33.536l0.00-192.00 L 448.00,128.00 l 32.00,0.00 c 17.696,0.00, 32.00,12.736, 32.00,30.432l0.00,288.00 
		C 512.00,464.128, 497.696,480.00, 480.00,480.00zM 384.00,384.00L 32.00,384.00 C 14.40,384.00,0.00,367.744,0.00,349.76l0.00-255.328 C0.00,76.48, 14.40,64.00, 32.00,64.00l 119.04,0.00 l 172.096-89.312
		C 339.072-33.12, 352.00-30.048, 352.00-12.032L 352.00,64.00 l 32.00,0.00 c 17.60,0.00, 32.00,12.48, 32.00,30.432L 416.00,349.76 C 416.00,367.744, 401.60,384.00, 384.00,384.00z M 320.00,176.00C 320.00,167.168, 312.832,160.00, 304.00,160.00l-192.00,0.00 
		C 103.168,160.00, 96.00,167.168, 96.00,176.00l0.00,32.00 C 96.00,216.832, 103.168,224.00, 112.00,224.00l 192.00,0.00 C 312.832,224.00, 320.00,216.832, 320.00,208.00L 320.00,176.00 z M 320.00,272.00C 320.00,263.168, 312.832,256.00, 304.00,256.00l-192.00,0.00 
		C 103.168,256.00, 96.00,263.168, 96.00,272.00l0.00,32.00 C 96.00,312.832, 103.168,320.00, 112.00,320.00l 192.00,0.00 C 312.832,320.00, 320.00,312.832, 320.00,304.00L 320.00,272.00 z"  />
<glyph unicode="&#xe03b;" d="M 32.00,352.00C 14.40,352.00,0.00,337.28,0.00,319.296L0.00,128.00 c0.00-17.984, 14.40-32.00, 32.00-32.00l 32.00,0.00 l0.00-106.496 c0.00-18.016, 16.992-26.496, 28.864-14.016
				L 200.96,96.00L 288.00,96.00 c 17.60,0.00, 32.00,14.016, 32.00,32.00L 320.00,319.296 C 320.00,337.28, 305.60,352.00, 288.00,352.00L 32.00,352.00 zM 224.00,480.00C 206.40,480.00, 192.00,465.28, 192.00,447.296L 192.00,384.00 l 128.00,0.00 c 17.696,0.00, 32.00-14.336, 32.00-32.00l0.00-173.696 l 67.136-74.848
			C 431.008,91.008, 448.00,99.456, 448.00,117.504L 448.00,224.00 l 32.00,0.00 c 17.60,0.00, 32.00,14.016, 32.00,32.00L 512.00,447.296 C 512.00,465.28, 497.60,480.00, 480.00,480.00L 224.00,480.00 z"  />
<glyph unicode="&#xe03c;" d="M 416.00,256.00L 416.00,256.00L 416.00,320.00 c0.00,88.384-71.616,160.00-160.00,160.00S 96.00,408.384, 96.00,320.00l0.00-64.00 l0.00,0.00C 78.304,256.00, 64.00,241.696, 64.00,224.00l0.00-224.00 
	c0.00-17.696, 14.304-32.00, 32.00-32.00l 320.00,0.00 c 17.696,0.00, 32.00,14.304, 32.00,32.00L 448.00,224.00 C 448.00,241.696, 433.696,256.00, 416.00,256.00z M 256.00,416.00c 52.928,0.00, 96.00-43.072, 96.00-96.00l0.00-64.00 L 160.00,256.00 L 160.00,320.00 C 160.00,372.928, 203.072,416.00, 256.00,416.00z"  />
<glyph unicode="&#xe03d;" d="M 320.00,256.00L 160.00,256.00 L 160.00,320.00 c0.00,52.928, 43.072,96.00, 96.00,96.00c 41.952,0.00, 77.696-27.072, 90.72-64.64
	C 352.544,334.688, 366.304,320.00, 384.00,320.00l0.00,0.00c 17.696,0.00, 32.352,14.432, 28.832,31.744C 398.112,424.928, 333.504,480.00, 256.00,480.00C 167.616,480.00, 96.00,408.384, 96.00,320.00l0.00-64.00 
	C 78.304,256.00, 64.00,241.696, 64.00,224.00l0.00-224.00 c0.00-17.696, 14.304-32.00, 32.00-32.00l 320.00,0.00 c 17.696,0.00, 32.00,14.304, 32.00,32.00L 448.00,224.00 c0.00,17.696-14.304,32.00-32.00,32.00L 320.00,256.00 z"  />
<glyph unicode="&#xe03e;" d="M 416.00,256.00L 416.00,320.00 c0.00,88.384-71.616,160.00-160.00,160.00S 96.00,408.384, 96.00,320.00l0.00-64.00 C 78.304,256.00, 64.00,241.696, 64.00,224.00l0.00-224.00 c0.00-17.696, 14.304-32.00, 32.00-32.00
	l 320.00,0.00 c 17.696,0.00, 32.00,14.304, 32.00,32.00L 448.00,224.00 C 448.00,241.696, 433.696,256.00, 416.00,256.00z M 352.00,256.00l-32.00,0.00 L 192.00,256.00 L 160.00,256.00 L 160.00,320.00 c0.00,52.928, 43.072,96.00, 96.00,96.00s 96.00-43.072, 96.00-96.00L 352.00,256.00 z M 256.00,32.00L 256.00,32.00
	c-17.664,0.00-32.00,14.304-32.00,32.00l0.00,96.00 c0.00,17.696, 14.336,32.00, 32.00,32.00l0.00,0.00c 17.664,0.00, 32.00-14.304, 32.00-32.00l0.00-96.00 C 288.00,46.304, 273.664,32.00, 256.00,32.00z"  />
<glyph unicode="&#xe03f;" d="M 448.00,256.00l-32.00,0.00 L 416.00,320.00 c0.00,88.384-71.616,160.00-160.00,160.00S 96.00,408.384, 96.00,320.00l0.00-64.00 L 64.00,256.00 C 46.304,256.00, 32.00,238.496, 32.00,220.80L 32.00,0.00 c0.00-17.696, 14.304-32.00, 32.00-32.00l 384.00,0.00 
		c 17.696,0.00, 32.00,14.304, 32.00,32.00L 480.00,220.80 C 480.00,238.496, 465.696,256.00, 448.00,256.00z M 256.00,416.00c 52.928,0.00, 96.00-43.072, 96.00-96.00l0.00-64.00 l-32.00,0.00 L 192.00,256.00 L 160.00,256.00 L 160.00,320.00 C 160.00,372.928, 203.072,416.00, 256.00,416.00z"  />
<glyph unicode="&#xe040;" d="M 160.00,256.00L 160.00,320.00 c0.00,52.928, 43.072,96.00, 96.00,96.00c 41.952,0.00, 77.696-27.072, 90.72-64.64
	C 352.544,334.688, 366.304,320.00, 384.00,320.00l0.00,0.00c 17.696,0.00, 32.352,14.432, 28.832,31.744C 398.112,424.928, 333.504,480.00, 256.00,480.00C 167.616,480.00, 96.00,408.384, 96.00,320.00l0.00-64.00 L 64.00,256.00 
	C 46.304,256.00, 32.00,238.496, 32.00,220.80L 32.00,0.00 c0.00-17.696, 14.304-32.00, 32.00-32.00l 384.00,0.00 c 17.696,0.00, 32.00,14.304, 32.00,32.00L 480.00,220.80 C 480.00,238.496, 465.696,256.00, 448.00,256.00L 160.00,256.00 z"  />
<glyph unicode="&#xe041;" d="M 281.504,294.72C 285.504,307.872, 288.384,321.568, 288.384,336.00
	c0.00,79.52-64.416,144.00-143.936,144.00S 0.48,415.52, 0.48,336.00S 64.96,192.00, 144.48,192.00c 14.432,0.00, 27.904,2.784, 41.024,6.72L 192.00,192.00l0.00-64.00 l 64.00,0.00 l0.00-64.00 l 64.00,0.00 l0.00-64.00 l 64.512,0.00 l 32.00-32.00L 512.00-32.00 l0.00,96.00 
	L 281.504,294.72z M 112.512,320.00c-26.528,0.00-48.00,21.472-48.00,48.00S 85.984,416.00, 112.512,416.00s 48.00-21.472, 48.00-48.00S 139.04,320.00, 112.512,320.00z"  />
<glyph unicode="&#xe042;" d="M 476.80,288.00L 192.00,288.00 L 192.00,320.00 c0.00,17.696-17.504,32.00-35.20,32.00l-128.00,0.00 C 11.104,352.00,0.00,337.696,0.00,320.00l0.00-196.00 
	C0.00,106.304, 11.104,96.00, 28.80,96.00l 128.00,0.00 C 174.496,96.00, 192.00,110.304, 192.00,128.00l0.00,32.00 l 60.80,0.00 l 32.00-32.00l 32.00,32.00l 32.00,0.00 l 32.00-32.00l 32.00,32.00l 64.00,0.00 l 64.00,64.00L 476.80,288.00z M 128.00,176.00C 128.00,167.168, 120.832,160.00, 112.00,160.00l-32.00,0.00 
	C 71.168,160.00, 64.00,167.168, 64.00,176.00l0.00,96.00 C 64.00,280.832, 71.168,288.00, 80.00,288.00l 32.00,0.00 C 120.832,288.00, 128.00,280.832, 128.00,272.00L 128.00,176.00 z"  />
<glyph unicode="&#xe043;" d="M 480.00,182.24
	c0.00,106.304-68.00,195.776-160.96,224.192C 319.488,409.60, 320.00,412.736, 320.00,416.00c0.00,35.36-28.672,64.00-64.00,64.00S 192.00,451.36, 192.00,416.00c0.00-3.264, 0.512-6.40, 0.96-9.568
	C 100.00,378.016, 32.00,288.576, 32.00,182.24L 32.00,96.00 L 16.00,96.00 C 7.168,96.00,0.00,88.832,0.00,80.00l0.00-32.00 C0.00,39.168, 7.168,32.00, 16.00,32.00L 192.00,32.00 c0.00-35.36, 28.672-64.00, 64.00-64.00s 64.00,28.64, 64.00,64.00l 176.00,0.00 
	c 8.832,0.00, 16.00,7.168, 16.00,16.00l0.00,32.00 c0.00,8.832-7.168,16.00-16.00,16.00L 480.00,96.00 L 480.00,182.24 z"  />
<glyph unicode="&#xe044;" d="M 474.016,189.536c-8.48,24.224-27.744,42.208-54.528,53.568c-14.304,6.048-30.912,20.48-36.032,35.20L 360.64,343.904
		C 334.752,418.24, 261.888,462.912, 186.848,456.608c-7.712-0.672-16.032,4.192-18.592,11.52L 167.424,470.528c-2.56,7.328-10.592,11.232-17.952,8.672
		l-26.592-9.28C 115.552,467.392, 111.68,459.328, 114.208,452.00L 115.072,449.60c 2.56-7.328-0.928-16.288-7.424-20.576
		c-62.72-41.664-92.096-121.92-66.208-196.256l 22.848-65.632c 5.12-14.688, 1.024-36.32-6.40-49.984c-13.92-25.504-17.888-51.584-9.472-75.808
		c 23.776-68.256, 133.152-87.84, 254.496-45.664C 424.192,37.984, 497.76,121.28, 474.016,189.536z M 284.352,48.96
		c-98.912-34.432-173.088-16.832-182.784,10.944c-9.632,27.744, 37.60,87.616, 136.48,122.048c 98.944,34.40, 173.12,16.80, 182.752-10.944
		C 430.464,143.232, 383.264,83.36, 284.352,48.96zM 295.616,164.096c-15.328-2.688-31.104-6.816-47.136-12.448c-39.808-13.76-67.552-30.752-85.76-46.016
		c-2.688-2.272-3.232-7.68-0.992-10.432C 176.448,76.928, 198.976,64.00, 224.192,64.00l 2.24,0.00 c 12.16,0.00, 23.648,4.64, 33.92,9.76
		c 25.952,13.12, 43.84,40.832, 43.84,71.904c0.00,4.256-0.288,8.736-0.928,12.896C 302.688,162.048, 299.136,164.672, 295.616,164.096z"  />
<glyph unicode="&#xe045;" d="M 288.00,381.792L 288.00,416.00 
	l 48.32,0.00 C 345.152,416.00, 352.00,423.168, 352.00,432.00L 352.00,448.00 c0.00,17.696-14.016,32.00-31.68,32.00l-128.00,0.00 C 174.624,480.00, 160.00,465.696, 160.00,448.00l0.00-16.00 C 160.00,423.168, 167.456,416.00, 176.32,416.00L 224.00,416.00 l0.00-34.208 
	C 96.00,366.016, 0.16,290.528, 0.16,160.00l0.00,0.00c0.00-17.696, 14.464-32.00, 32.16-32.00L 224.00,128.00 l0.00-96.00 L 32.32,32.00 C 14.624,32.00,0.00,17.696,0.00,0.00l0.00-16.00 C0.00-24.832, 7.456-32.00, 16.32-32.00l 480.00,0.00 
	c 8.832,0.00, 15.68,7.168, 15.68,16.00L 512.00,0.00 c0.00,17.696-14.016,32.00-31.68,32.00L 288.00,32.00 l0.00,96.00 l 192.32,0.00 c 17.696,0.00, 31.84,14.304, 31.84,32.00l0.00,0.00C 512.16,290.528, 416.00,366.016, 288.00,381.792z
	"  />
<glyph unicode="&#xe046;" d="M 480.00,352.00l-64.00,0.00 L 416.00,448.00 c0.00,17.696-14.304,32.00-32.00,32.00L 128.00,480.00 C 110.304,480.00, 96.00,465.696, 96.00,448.00l0.00-96.00 L 32.00,352.00 
	C 14.304,352.00,0.00,337.696,0.00,320.00l0.00-256.00 c0.00-17.696, 14.304-32.00, 32.00-32.00l 64.00,0.00 l0.00-32.00 c0.00-17.696, 14.304-32.00, 32.00-32.00l 256.00,0.00 c 17.696,0.00, 32.00,14.304, 32.00,32.00l0.00,32.00 l 64.00,0.00 c 17.696,0.00, 32.00,14.304, 32.00,32.00L 512.00,320.00 
	C 512.00,337.696, 497.696,352.00, 480.00,352.00z M 160.00,416.00l 192.00,0.00 l0.00-64.00 L 160.00,352.00 L 160.00,416.00 z M 320.00,256.00l0.00-64.00 L 256.00,192.00 L 256.00,256.00 L 320.00,256.00 z M 352.00,32.00L 160.00,32.00 l0.00,64.00 l 192.00,0.00 L 352.00,32.00 z M 416.00,192.00l-64.00,0.00 L 352.00,256.00 l 64.00,0.00 L 416.00,192.00 z"  />
<glyph unicode="&#xe047;" d="M 448.00,480.00L 64.00,480.00 C 46.304,480.00, 32.00,465.696, 32.00,448.00l0.00-448.00 c0.00-17.696, 14.304-32.00, 32.00-32.00l 384.00,0.00 c 17.696,0.00, 32.00,14.304, 32.00,32.00L 480.00,448.00 
	C 480.00,465.696, 465.696,480.00, 448.00,480.00z M 192.00,64.00L 128.00,64.00 l0.00,64.00 l 64.00,0.00 L 192.00,64.00 z M 192.00,160.00L 128.00,160.00 L 128.00,224.00 l 64.00,0.00 L 192.00,160.00 z M 288.00,64.00L 224.00,64.00 l0.00,64.00 l 64.00,0.00 L 288.00,64.00 z M 288.00,160.00L 224.00,160.00 L 224.00,224.00 l 64.00,0.00 L 288.00,160.00 z M 384.00,64.00l-64.00,0.00 l0.00,64.00 l 64.00,0.00 L 384.00,64.00 z M 384.00,160.00l-64.00,0.00 L 320.00,224.00 l 64.00,0.00 L 384.00,160.00 z
	 M 416.00,320.00L 96.00,320.00 L 96.00,416.00 l 320.00,0.00 L 416.00,320.00 z"  />
<glyph unicode="&#xe048;" d="M 448.00,256.00l-2.976,0.00 C 429.504,352.00, 350.88,415.68, 256.00,415.68C 160.896,415.68, 82.144,352.00, 66.88,256.00L 64.00,256.00 
	c-56.192,0.00-96.00-67.552-96.00-128.00c0.00-70.40, 57.28-128.00, 128.00-128.00l 320.00,0.00 c 70.72,0.00, 127.36,57.28, 127.36,127.68C 543.36,187.20, 503.04,256.00, 448.00,256.00z"  />
<glyph unicode="&#xe049;" d="M 448.00,256.00l-2.976,0.00 C 429.504,352.00, 350.88,415.712, 256.00,415.712C 160.896,415.712, 82.144,352.00, 66.88,256.00L 64.00,256.00 
	c-56.192,0.00-96.00-67.552-96.00-128.00c0.00-70.432, 57.28-128.00, 128.00-128.00l 320.00,0.00 c 70.72,0.00, 127.36,57.248, 127.36,127.68C 543.36,187.20, 503.04,256.00, 448.00,256.00z M 162.88,177.92l 82.784,107.36
	C 251.36,292.80, 260.64,293.12, 266.336,285.632l 82.784-108.00C 354.848,170.112, 351.744,160.00, 342.24,160.00L 288.00,160.00 l0.00-76.192 C 288.00,75.008, 280.832,64.00, 272.00,64.00l-32.00,0.00 
	C 231.168,64.00, 224.00,75.008, 224.00,83.808L 224.00,160.00 L 169.76,160.00 C 160.256,160.00, 157.152,170.336, 162.88,177.92z"  />
<glyph unicode="&#xe04a;" d="M 448.00,256.00l-2.976,0.00 C 429.504,352.00, 350.88,415.712, 256.00,415.712C 160.896,415.712, 82.144,352.00, 66.88,256.00L 64.00,256.00 
	c-56.192,0.00-96.00-67.552-96.00-128.00c0.00-70.432, 57.28-128.00, 128.00-128.00l 320.00,0.00 c 70.72,0.00, 127.36,57.248, 127.36,127.68C 543.36,187.20, 503.04,256.00, 448.00,256.00z M 352.00,176.64
	C 352.00,167.744, 344.224,160.00, 335.36,160.00L 288.00,160.00 l0.00-47.36 C 288.00,103.744, 280.224,96.00, 271.36,96.00l-32.00,0.00 C 230.528,96.00, 224.00,103.744, 224.00,112.64L 224.00,160.00 L 175.36,160.00 C 166.528,160.00, 160.00,167.744, 160.00,176.64l0.00,32.00 
	C 160.00,217.408, 166.528,224.00, 175.36,224.00L 224.00,224.00 L 224.00,272.608 C 224.00,281.408, 230.528,288.00, 239.36,288.00l 32.00,0.00 C 280.224,288.00, 288.00,281.408, 288.00,272.608L 288.00,224.00 l 47.36,0.00 C 344.224,224.00, 352.00,217.408, 352.00,208.608L 352.00,176.64 z"  />
<glyph unicode="&#xe04b;" d="M 448.00,256.00l-2.976,0.00 C 429.504,352.00, 350.88,415.712, 256.00,415.712C 160.896,415.712, 82.144,352.00, 66.88,256.00L 64.00,256.00 
	c-56.192,0.00-96.00-67.552-96.00-128.00c0.00-70.432, 57.28-128.00, 128.00-128.00l 320.00,0.00 c 70.72,0.00, 127.36,57.248, 127.36,127.68C 543.36,187.20, 503.04,256.00, 448.00,256.00z M 382.624,227.104l-142.176-143.104
	c-5.568-5.632-14.56-5.632-20.128,0.00L 134.976,169.888c-5.536,5.568-5.536,14.624,0.00,20.256l 20.128,20.224c 5.568,5.568, 14.528,5.568, 20.096,0.00
	l 55.20-55.552l 112.064,112.80c 5.568,5.568, 14.528,5.568, 20.096,0.00l 20.096-20.256C 388.192,241.76, 388.192,232.736, 382.624,227.104z"  />
<glyph unicode="&#xe04c;" d="M 320.00,32.00L 128.00,32.00 c-70.56,0.00-128.00,57.408-128.00,128.032c0.00,70.592, 57.44,128.00, 128.00,128.00c 3.648,0.00, 7.296-0.16, 10.88-0.48
		C 165.184,363.68, 236.736,416.00, 320.00,416.00c 105.888,0.00, 192.00-86.112, 192.00-192.00C 512.00,118.144, 425.888,32.00, 320.00,32.00z"  />
<glyph unicode="&#xe04d;" d="M 175.36-32.00L 62.528-32.00 C 44.704-32.00, 32.00-17.696, 32.00,0.00L 32.00,192.00 l-47.328,0.00 c-17.824,0.00-22.016,10.112-9.44,22.624l 257.952,256.00
		c 12.64,12.512, 32.992,12.512, 45.632,0.00l 257.952-256.00C 549.344,202.112, 545.12,192.00, 527.328,192.00L 480.00,192.00 l0.00-192.00 c0.00-17.696-12.704-32.00-30.528-32.00L 336.64-32.00 
		C 327.68-32.00, 320.00-24.832, 320.00-16.00l0.00,128.00 c0.00,8.832-6.72,16.00-15.616,16.00L 207.616,128.00 C 198.72,128.00, 192.00,120.832, 192.00,112.00l0.00-128.00 C 192.00-24.832, 184.32-32.00, 175.36-32.00z"  />
<glyph unicode="&#xe04e;" d="M 267.616,474.88C 261.184,481.216, 250.816,481.952, 244.384,475.616L-28.32,205.12
	C-34.72,198.784-32.576,192.00-23.488,192.00L 32.00,192.00 l0.00-207.616 C 32.00-24.512, 39.168-32.00, 48.00-32.00l 125.824,0.00 C 182.88-32.00, 192.00-24.384, 192.00-15.424l0.00,127.808 C 192.00,121.184, 199.168,128.00, 208.00,128.00
	l 96.00,0.00 c 8.832,0.00, 16.00-6.816, 16.00-15.616l0.00-127.808 C 320.00-24.384, 329.12-32.00, 338.176-32.00L 464.00-32.00 c 8.832,0.00, 16.00,7.488, 16.00,16.384L 480.00,192.00 l 55.488,0.00 
	c 9.056,0.00, 11.232,6.784, 4.80,13.12L 267.616,474.88z"  />
<glyph unicode="&#xe04f;" d="M 416.00,326.624l0.00,112.00 
	C 416.00,447.456, 409.376,448.00, 400.544,448.00l-32.064,0.00 C 359.616,448.00, 352.00,447.456, 352.00,438.624l0.00-48.00 L 267.424,475.328c-6.24,6.24-16.256,6.24-22.528,0.00l-273.344-268.672
	C-34.688,200.384-32.576,192.00-23.712,192.00L 32.00,192.00 l0.00-201.376 C 32.00-18.208, 39.232-32.00, 48.096-32.00l 128.16,0.00 C 185.088-32.00, 192.00-18.208, 192.00-9.376l0.00,128.00 C 192.00,127.456, 199.424,128.00, 208.288,128.00
	l 96.128,0.00 C 313.248,128.00, 320.00,127.456, 320.00,118.624l0.00-128.00 C 320.00-18.208, 327.584-32.00, 336.448-32.00l 128.16,0.00 C 473.472-32.00, 480.00-18.208, 480.00-9.376L 480.00,192.00 l 55.68,0.00 
	c 8.832,0.00, 10.688,8.384, 4.448,14.624L 416.00,326.624z"  />
<glyph unicode="&#xe050;" d="M 416.00,446.816L 416.00,320.00 l-48.00,38.816L 320.00,320.00L 320.00,422.816 c0.00,8.832-6.944,14.24-15.488,12.128L 256.00,422.816
	L 31.04,479.072C 13.92,483.328,0.00,472.512,0.00,454.816l0.00-352.00 c0.00-17.696, 13.408-37.024, 29.984-43.264l 196.064-73.504c 16.544-6.208, 43.392-6.208, 59.936,0.00
	l 196.064,73.504C 498.56,65.792, 512.00,85.12, 512.00,102.816l0.00,352.00 c0.00,17.696-13.92,28.544-31.072,24.256l-49.44-12.384C 422.944,464.576, 416.00,455.648, 416.00,446.816z"  />
<glyph unicode="&#xe051;" d="M 480.00,480.00c-16.00,0.00-146.24-1.60-224.00-55.072C 178.24,478.40, 48.00,480.00, 32.00,480.00C 11.008,480.00,0.00,465.696,0.00,448.00l0.00-384.00 
	c0.00-17.696, 15.008-32.00, 32.00-32.00l0.00,0.00c 38.40,0.00, 142.048-8.64, 192.00-46.40c 3.20-2.56, 6.40-5.44, 9.28-8.32c0.00,0.00, 5.088-5.088, 11.328-11.328
	c 6.304-6.304, 16.448-6.304, 22.752,0.00L 278.72-22.72C 281.60-19.84, 284.80-16.96, 288.00-14.40C 337.952,23.36, 449.344,32.00, 487.744,32.00
	C 506.752,32.00, 512.00,46.304, 512.00,64.00L 512.00,448.00 C 512.00,465.696, 502.016,480.00, 480.00,480.00z M 79.904,382.016c 26.688-3.52, 82.144-11.712, 128.768-24.672
	C 217.184,355.008, 224.00,345.696, 224.00,336.832L 224.00,320.00 l0.00-18.624 c0.00-8.832-6.72-13.504-15.136-10.752c-48.352,15.68-102.336,24.544-128.96,27.84C 71.136,319.552, 64.00,327.168, 64.00,336.00
	l0.00,32.00 C 64.00,376.832, 71.136,383.20, 79.904,382.016z M 208.864,194.624c-48.352,15.68-102.336,24.544-128.96,27.84C 71.136,223.552, 64.00,231.168, 64.00,240.00l0.00,32.00 
	c0.00,8.832, 7.136,15.20, 15.904,14.016c 26.688-3.52, 82.144-11.712, 128.768-24.672C 217.184,259.008, 224.00,249.696, 224.00,240.832L 224.00,224.00 l0.00-18.624 
	C 224.00,196.544, 217.28,191.872, 208.864,194.624z M 303.328,357.472c 45.952,12.896, 101.92,21.088, 128.768,24.608C 440.864,383.20, 448.00,376.832, 448.00,368.00L 448.00,352.00 l0.00-16.00 
	c0.00-8.832-7.136-16.80-15.872-17.984c-26.944-3.584-83.072-12.32-129.056-27.328C 294.688,287.936, 288.00,292.544, 288.00,301.376L 288.00,336.832 
	C 288.00,345.696, 294.816,355.072, 303.328,357.472z M 432.128,222.016c-26.944-3.584-83.072-12.32-129.056-27.328C 294.688,191.936, 288.00,196.544, 288.00,205.376L 288.00,240.832 
	c0.00,8.832, 6.816,18.208, 15.328,20.64c 45.952,12.896, 101.92,21.088, 128.768,24.608C 440.864,287.20, 448.00,280.832, 448.00,272.00l0.00-32.00 
	C 448.00,231.168, 440.864,223.20, 432.128,222.016z M 208.864,98.624c-48.352,15.68-102.336,24.544-128.96,27.84C 71.136,127.552, 64.00,135.168, 64.00,144.00l0.00,32.00 
	c0.00,8.832, 7.136,15.20, 15.904,14.016c 26.688-3.52, 82.144-11.712, 128.768-24.672C 217.184,163.008, 224.00,153.696, 224.00,144.832l0.00-35.456 
	C 224.00,100.544, 217.28,95.872, 208.864,98.624z M 288.00,109.376l0.00,35.456 c0.00,8.832, 6.784,18.208, 15.328,20.608c 45.952,12.928, 101.952,21.12, 128.80,24.64
	C 440.864,191.20, 448.00,184.832, 448.00,176.00l0.00-32.00 c0.00-8.832-7.136-16.80-15.872-17.984c-26.944-3.584-83.072-12.32-129.056-27.328
	C 294.688,95.936, 288.00,100.544, 288.00,109.376z"  />
<glyph unicode="&#xe052;" d="M 364.448,323.168C 357.568,317.60, 352.00,320.256, 352.00,329.088L 352.00,448.864 
	c0.00,8.832-7.008,14.304-15.488,11.936C 307.936,452.736, 279.552,441.376, 256.00,425.184C 198.144,464.928, 111.328,476.032, 64.00,479.104C 56.992,479.552, 44.288,479.808, 32.00,480.00
	C 14.304,480.256,0.00,465.952,0.00,448.256l0.00-384.00 c0.00-17.696, 14.304-31.712, 32.00-31.584c 12.992,0.064, 26.272,0.032, 32.00-0.416c 47.84-3.584, 120.64-16.64, 160.00-46.40
	c 3.20-2.56, 6.40-5.44, 9.28-8.32c0.00,0.00, 5.088-5.088, 11.36-11.328c 6.272-6.304, 16.448-6.304, 22.72,0.00l 11.36,11.328
	c 2.88,2.88, 6.08,5.76, 9.28,8.32c 39.36,29.792, 112.16,42.816, 160.00,46.40c 5.728,0.448, 19.008,0.48, 32.00,0.416c 17.696-0.128, 32.00,13.92, 32.00,31.584l0.00,384.00 
	c0.00,17.696-14.304,32.00-32.00,31.744c-5.44-0.064-10.944-0.192-16.00-0.32C 455.168,479.488, 448.00,471.936, 448.00,463.104l0.00-134.144 c0.00-8.864-5.568-11.488-12.448-5.952
	L 400.00,359.072L 364.448,323.168z"  />
<glyph unicode="&#xe053;" d="M 480.00,480.00c-16.00,0.00-146.24-1.60-224.00-55.072C 178.24,478.40, 48.00,480.00, 32.00,480.00C 12.992,480.00,0.00,465.696,0.00,448.00l0.00-384.00 
	c0.00-17.696, 15.008-32.00, 32.00-32.00l0.00,0.00c 38.40,0.00, 142.048-8.64, 192.00-46.40c 3.20-2.56, 6.40-5.44, 9.28-8.32c0.00,0.00, 5.088-5.088, 11.328-11.328
	c 6.304-6.304, 16.448-6.304, 22.752,0.00L 278.72-22.72C 281.60-19.84, 284.80-16.96, 288.00-14.40C 337.952,23.36, 441.60,32.00, 480.00,32.00c 19.008,0.00, 32.00,14.304, 32.00,32.00L 512.00,448.00 
	C 512.00,465.696, 497.984,480.00, 480.00,480.00z M 79.872,382.016c 26.688-3.52, 82.144-11.712, 128.768-24.672C 217.184,355.008, 224.00,345.696, 224.00,336.832L 224.00,320.00 l0.00-18.624 
	c0.00-8.832-6.752-13.504-15.136-10.752c-48.384,15.68-102.368,24.544-128.96,27.84C 71.136,319.552, 64.00,327.168, 64.00,336.00l0.00,32.00 C 64.00,376.832, 71.136,383.20, 79.872,382.016
	z M 208.864,194.624c-48.384,15.68-102.368,24.544-128.96,27.84C 71.136,223.552, 64.00,231.168, 64.00,240.00l0.00,32.00 c0.00,8.832, 7.136,15.20, 15.872,14.016
	c 26.688-3.52, 82.144-11.712, 128.768-24.672C 217.184,259.008, 224.00,249.696, 224.00,240.832L 224.00,224.00 l0.00-18.624 C 224.00,196.544, 217.248,191.872, 208.864,194.624z M 303.328,357.472
	c 45.952,12.896, 101.92,21.088, 128.768,24.608C 440.864,383.20, 448.00,376.832, 448.00,368.00L 448.00,352.00 l0.00-16.00 c0.00-8.832-7.136-16.80-15.872-17.984
	c-26.944-3.584-83.072-12.32-129.056-27.328C 294.688,287.936, 288.00,292.544, 288.00,301.376L 288.00,336.832 C 288.00,345.696, 294.816,355.072, 303.328,357.472z M 432.128,222.016
	c-26.944-3.584-83.072-12.32-129.056-27.328C 294.688,191.936, 288.00,196.544, 288.00,205.376L 288.00,240.832 c0.00,8.832, 6.816,18.208, 15.328,20.64
	c 45.952,12.896, 101.92,21.088, 128.768,24.608C 440.864,287.20, 448.00,280.832, 448.00,272.00L 448.00,256.00 l0.00-16.00 C 448.00,231.168, 440.864,223.20, 432.128,222.016z"  />
<glyph unicode="&#xe054;" d="M 448.00,480.00L 128.00,480.00 C 74.88,480.00, 32.00,437.12, 32.00,384.00l0.00-320.00 c0.00-53.12, 42.88-96.00, 96.00-96.00l 320.00,0.00 c 17.696,0.00, 32.00,14.304, 32.00,32.00L 480.00,320.00 
	c0.00,17.696-14.304,32.00-32.00,32.00l-48.00,0.00 C 391.168,352.00, 384.00,344.832, 384.00,336.00l0.00-169.312 c0.00-8.864-5.568-11.488-12.448-5.952L 336.00,198.816L 300.448,162.048
	C 293.568,156.512, 288.00,159.168, 288.00,168.00L 288.00,320.00 c0.00,17.696-14.304,32.00-32.00,32.00L 128.00,352.00 C 110.40,352.00, 96.00,366.40, 96.00,384.00s 14.40,32.00, 32.00,32.00l 336.00,0.00 C 472.832,416.00, 480.00,423.168, 480.00,432.00L 480.00,448.00 
	C 480.00,465.696, 465.696,480.00, 448.00,480.00z"  />
<glyph unicode="&#xe055;" d="M 464.00,416.00C 472.832,416.00, 480.00,423.168, 480.00,432.00L 480.00,448.00 c0.00,17.696-14.304,32.00-32.00,32.00L 128.00,480.00 C 74.88,480.00, 32.00,437.12, 32.00,384.00l0.00-320.00 
	c0.00-53.12, 42.88-96.00, 96.00-96.00l 320.00,0.00 c 17.696,0.00, 32.00,14.304, 32.00,32.00L 480.00,320.00 c0.00,17.696-14.304,32.00-32.00,32.00L 128.00,352.00 C 110.40,352.00, 96.00,366.40, 96.00,384.00s 14.40,32.00, 32.00,32.00L 464.00,416.00 z M 176.00,160.00l 192.00,0.00 
	c 8.832,0.00, 16.00-7.168, 16.00-16.00l0.00-32.00 c0.00-8.832-7.168-16.00-16.00-16.00l-192.00,0.00 C 167.168,96.00, 160.00,103.168, 160.00,112.00l0.00,32.00 C 160.00,152.832, 167.168,160.00, 176.00,160.00z M 176.00,256.00l 192.00,0.00 
	C 376.832,256.00, 384.00,248.832, 384.00,240.00l0.00-32.00 C 384.00,199.168, 376.832,192.00, 368.00,192.00l-192.00,0.00 C 167.168,192.00, 160.00,199.168, 160.00,208.00l0.00,32.00 C 160.00,248.832, 167.168,256.00, 176.00,256.00z"  />
<glyph unicode="&#xe056;" d="M 448.00,480.00l-48.00,0.00 C 391.168,480.00, 384.00,472.832, 384.00,464.00l0.00-199.328 c0.00-8.864-5.568-11.488-12.448-5.952L 336.00,294.816
	L 300.448,258.752C 293.568,253.184, 288.00,255.808, 288.00,264.672L 288.00,448.00 c0.00,17.696-14.304,32.00-32.00,32.00L 128.00,480.00 C 74.88,480.00, 32.00,437.12, 32.00,384.00l0.00-320.00 c0.00-53.12, 42.88-96.00, 96.00-96.00l 320.00,0.00 c 17.696,0.00, 32.00,14.304, 32.00,32.00
	l0.00,16.00 c0.00,8.832-7.168,16.00-16.00,16.00L 128.00,32.00 c-17.60,0.00-32.00,14.40-32.00,32.00s 14.40,32.00, 32.00,32.00l 320.00,0.00 c 17.696,0.00, 32.00,14.304, 32.00,32.00L 480.00,448.00 C 480.00,465.696, 465.696,480.00, 448.00,480.00z"  />
<glyph unicode="&#xe057;" d="M 32.00,384.00l0.00-320.00 c0.00-53.12, 42.88-96.00, 96.00-96.00l 320.00,0.00 c 17.696,0.00, 32.00,14.304, 32.00,32.00l0.00,16.00 c0.00,8.832-7.168,16.00-16.00,16.00L 128.00,32.00 
	c-17.60,0.00-32.00,14.40-32.00,32.00s 14.40,32.00, 32.00,32.00l 320.00,0.00 c 17.696,0.00, 32.00,14.304, 32.00,32.00L 480.00,448.00 c0.00,17.696-14.304,32.00-32.00,32.00L 128.00,480.00 C 74.88,480.00, 32.00,437.12, 32.00,384.00z M 368.00,224.00l-192.00,0.00 
	C 167.168,224.00, 160.00,231.168, 160.00,240.00l0.00,32.00 C 160.00,280.832, 167.168,288.00, 176.00,288.00l 192.00,0.00 C 376.832,288.00, 384.00,280.832, 384.00,272.00l0.00-32.00 C 384.00,231.168, 376.832,224.00, 368.00,224.00z M 368.00,320.00l-192.00,0.00 
	C 167.168,320.00, 160.00,327.168, 160.00,336.00l0.00,32.00 C 160.00,376.832, 167.168,384.00, 176.00,384.00l 192.00,0.00 C 376.832,384.00, 384.00,376.832, 384.00,368.00l0.00-32.00 C 384.00,327.168, 376.832,320.00, 368.00,320.00z"  />
<glyph unicode="&#xe058;" d="M 384.00,480.00l0.00-180.992 c0.00-8.832-5.984-12.032-13.312-7.136L 336.00,326.816L 301.312,291.872
	C 293.984,286.976, 288.00,290.144, 288.00,299.008L 288.00,480.00 L 128.00,480.00 C 74.88,480.00, 32.00,437.12, 32.00,384.00l0.00-320.00 c0.00-53.12, 42.88-96.00, 96.00-96.00l 320.00,0.00 c 17.696,0.00, 32.00,14.304, 32.00,32.00L 480.00,448.00 c0.00,17.696-14.304,32.00-32.00,32.00L 384.00,480.00 z M 128.00,32.00
	c-17.60,0.00-32.00,14.40-32.00,32.00s 14.40,32.00, 32.00,32.00l 288.00,0.00 l0.00-64.00 L 128.00,32.00 z"  />
<glyph unicode="&#xe059;" d="M 448.32,480.00l-320.00,0.00 C 75.20,480.00, 32.00,437.12, 32.00,384.00l0.00-320.00 c0.00-53.12, 43.20-96.00, 96.32-96.00l 320.00,0.00 c 17.696,0.00, 31.68,14.304, 31.68,32.00
	l0.00,128.00 L 480.00,448.00 C 480.00,465.696, 465.984,480.00, 448.32,480.00z M 384.00,336.00C 384.00,327.168, 376.832,320.00, 368.00,320.00l-192.00,0.00 C 167.168,320.00, 160.00,327.168, 160.00,336.00l0.00,32.00 C 160.00,376.832, 167.168,384.00, 176.00,384.00l 192.00,0.00 
	C 376.832,384.00, 384.00,376.832, 384.00,368.00L 384.00,336.00 z M 384.00,240.00C 384.00,231.168, 376.832,224.00, 368.00,224.00l-192.00,0.00 C 167.168,224.00, 160.00,231.168, 160.00,240.00l0.00,32.00 C 160.00,280.832, 167.168,288.00, 176.00,288.00l 192.00,0.00 
	C 376.832,288.00, 384.00,280.832, 384.00,272.00L 384.00,240.00 z M 416.00,32.00L 128.32,32.00 c-17.60,0.00-32.00,14.40-32.00,32.00s 14.40,32.00, 32.00,32.00l 32.00,0.00 L 416.00,96.00 L 416.00,32.00 z"  />
<glyph unicode="&#xe05a;" d="M 480.00,384.00l-96.00,0.00 L 384.00,416.00 c0.00,17.696-14.304,32.00-32.00,32.00L 32.00,448.00 C 14.304,448.00,0.00,433.696,0.00,416.00l0.00-320.00 c0.00-53.12, 42.88-96.00, 96.00-96.00l 320.00,0.00 
	c 53.12,0.00, 96.00,42.88, 96.00,96.00L 512.00,352.00 C 512.00,369.696, 497.696,384.00, 480.00,384.00z M 272.00,96.00l-160.00,0.00 C 103.168,96.00, 96.00,103.168, 96.00,112.00l0.00,32.00 C 96.00,152.832, 103.168,160.00, 112.00,160.00l 160.00,0.00 
	C 280.832,160.00, 288.00,152.832, 288.00,144.00l0.00-32.00 C 288.00,103.168, 280.832,96.00, 272.00,96.00z M 272.00,192.00l-160.00,0.00 C 103.168,192.00, 96.00,199.168, 96.00,208.00l0.00,32.00 C 96.00,248.832, 103.168,256.00, 112.00,256.00l 160.00,0.00 
	C 280.832,256.00, 288.00,248.832, 288.00,240.00l0.00-32.00 C 288.00,199.168, 280.832,192.00, 272.00,192.00z M 272.00,288.00l-160.00,0.00 C 103.168,288.00, 96.00,295.168, 96.00,304.00l0.00,32.00 C 96.00,344.832, 103.168,352.00, 112.00,352.00l 160.00,0.00 
	C 280.832,352.00, 288.00,344.832, 288.00,336.00l0.00-32.00 C 288.00,295.168, 280.832,288.00, 272.00,288.00z M 448.00,96.00c0.00-17.60-14.40-32.00-32.00-32.00s-32.00,14.40-32.00,32.00L 384.00,320.00 l 64.00,0.00 L 448.00,96.00 z"  />
<glyph unicode="&#xe05b;" d="M 480.00,384.00l-16.00,0.00 C 455.168,384.00, 448.00,376.832, 448.00,368.00L 448.00,96.00 c0.00-17.60-14.40-32.00-32.00-32.00s-32.00,14.40-32.00,32.00L 384.00,416.00 
	c0.00,17.696-14.304,32.00-32.00,32.00L 32.00,448.00 C 14.304,448.00,0.00,433.696,0.00,416.00l0.00-320.00 c0.00-53.12, 42.88-96.00, 96.00-96.00l 320.00,0.00 c 53.12,0.00, 96.00,42.88, 96.00,96.00L 512.00,352.00 C 512.00,369.696, 497.696,384.00, 480.00,384.00z M 288.00,208.00
	C 288.00,199.168, 280.832,192.00, 272.00,192.00l-160.00,0.00 C 103.168,192.00, 96.00,199.168, 96.00,208.00l0.00,32.00 C 96.00,248.832, 103.168,256.00, 112.00,256.00l 160.00,0.00 C 280.832,256.00, 288.00,248.832, 288.00,240.00L 288.00,208.00 z M 288.00,304.00
	C 288.00,295.168, 280.832,288.00, 272.00,288.00l-160.00,0.00 C 103.168,288.00, 96.00,295.168, 96.00,304.00l0.00,32.00 C 96.00,344.832, 103.168,352.00, 112.00,352.00l 160.00,0.00 C 280.832,352.00, 288.00,344.832, 288.00,336.00L 288.00,304.00 z"  />
<glyph unicode="&#xe05c;" d="M 480.00,480.00L 160.00,480.00 C 142.304,480.00, 128.00,465.696, 128.00,448.00l0.00-32.00 L 32.00,416.00 C 14.304,416.00,0.00,401.696,0.00,384.00l0.00-320.00 c0.00-53.12, 42.88-96.00, 96.00-96.00l 320.00,0.00 
	c 53.12,0.00, 96.00,42.88, 96.00,96.00L 512.00,448.00 C 512.00,465.696, 497.696,480.00, 480.00,480.00z M 128.00,64.00c0.00-17.60-14.40-32.00-32.00-32.00s-32.00,14.40-32.00,32.00L 64.00,352.00 l 64.00,0.00 L 128.00,64.00 z M 400.00,128.00l-160.00,0.00 C 231.168,128.00, 224.00,135.168, 224.00,144.00
	l0.00,32.00 C 224.00,184.832, 231.168,192.00, 240.00,192.00l 160.00,0.00 C 408.832,192.00, 416.00,184.832, 416.00,176.00l0.00-32.00 C 416.00,135.168, 408.832,128.00, 400.00,128.00z M 400.00,224.00l-160.00,0.00 C 231.168,224.00, 224.00,231.168, 224.00,240.00l0.00,32.00 
	C 224.00,280.832, 231.168,288.00, 240.00,288.00l 160.00,0.00 C 408.832,288.00, 416.00,280.832, 416.00,272.00l0.00-32.00 C 416.00,231.168, 408.832,224.00, 400.00,224.00z M 400.00,320.00l-160.00,0.00 C 231.168,320.00, 224.00,327.168, 224.00,336.00l0.00,32.00 
	C 224.00,376.832, 231.168,384.00, 240.00,384.00l 160.00,0.00 C 408.832,384.00, 416.00,376.832, 416.00,368.00l0.00-32.00 C 416.00,327.168, 408.832,320.00, 400.00,320.00z"  />
<glyph unicode="&#xe05d;" d="M 160.00,480.00C 142.304,480.00, 128.00,465.696, 128.00,448.00l0.00-384.00 c0.00-17.60-14.40-32.00-32.00-32.00s-32.00,14.40-32.00,32.00L 64.00,400.00 
	C 64.00,408.832, 56.832,416.00, 48.00,416.00L 32.00,416.00 C 14.304,416.00,0.00,401.696,0.00,384.00l0.00-320.00 c0.00-53.12, 42.88-96.00, 96.00-96.00l 320.00,0.00 c 53.12,0.00, 96.00,42.88, 96.00,96.00L 512.00,448.00 c0.00,17.696-14.304,32.00-32.00,32.00L 160.00,480.00 z M 400.00,96.00l-160.00,0.00 
	C 231.168,96.00, 224.00,103.168, 224.00,112.00l0.00,32.00 C 224.00,152.832, 231.168,160.00, 240.00,160.00l 160.00,0.00 c 8.832,0.00, 16.00-7.168, 16.00-16.00l0.00-32.00 C 416.00,103.168, 408.832,96.00, 400.00,96.00z M 400.00,192.00l-160.00,0.00 
	C 231.168,192.00, 224.00,199.168, 224.00,208.00l0.00,32.00 C 224.00,248.832, 231.168,256.00, 240.00,256.00l 160.00,0.00 C 408.832,256.00, 416.00,248.832, 416.00,240.00l0.00-32.00 C 416.00,199.168, 408.832,192.00, 400.00,192.00z M 400.00,288.00l-160.00,0.00 
	C 231.168,288.00, 224.00,295.168, 224.00,304.00l0.00,64.00 C 224.00,376.832, 231.168,384.00, 240.00,384.00l 160.00,0.00 C 408.832,384.00, 416.00,376.832, 416.00,368.00l0.00-64.00 C 416.00,295.168, 408.832,288.00, 400.00,288.00z"  />
<glyph unicode="&#xe05e;" d="M 64.256,480.00C 46.56,480.00, 32.00,465.696, 32.00,448.00l0.00-448.00 c0.00-17.696, 14.56-32.00, 32.256-32.00L 96.00-32.00 L 96.00,480.00 L 64.256,480.00 zM 448.256,480.00L 128.00,480.00 l0.00-512.00 l 320.256,0.00 C 465.952-32.00, 480.00-17.696, 480.00,0.00L 480.00,448.00 C 480.00,465.696, 465.952,480.00, 448.256,480.00z"  />
<glyph unicode="&#xe05f;" d="M 64.00,480.00C 46.304,480.00, 32.00,465.696, 32.00,448.00l0.00-448.00 c0.00-17.696, 14.304-32.00, 32.00-32.00l 32.00,0.00 L 96.00,480.00 L 64.00,480.00 zM 448.00,480.00L 128.00,480.00 l0.00-512.00 l 320.00,0.00 c 17.696,0.00, 32.00,14.304, 32.00,32.00L 480.00,448.00 C 480.00,465.696, 465.696,480.00, 448.00,480.00z M 368.00,192.00l-128.00,0.00 C 231.168,192.00, 224.00,199.168, 224.00,208.00l0.00,32.00 
		C 224.00,248.832, 231.168,256.00, 240.00,256.00l 128.00,0.00 C 376.832,256.00, 384.00,248.832, 384.00,240.00l0.00-32.00 C 384.00,199.168, 376.832,192.00, 368.00,192.00z M 368.00,288.00l-128.00,0.00 C 231.168,288.00, 224.00,295.168, 224.00,304.00l0.00,32.00 
		C 224.00,344.832, 231.168,352.00, 240.00,352.00l 128.00,0.00 C 376.832,352.00, 384.00,344.832, 384.00,336.00l0.00-32.00 C 384.00,295.168, 376.832,288.00, 368.00,288.00z"  />
<glyph unicode="&#xe060;" d="M0.00,448.00l0.00-448.00 c0.00-17.696, 14.304-32.00, 32.00-32.00l 32.00,0.00 L 64.00,480.00 L 32.00,480.00 C 14.304,480.00,0.00,465.696,0.00,448.00zM 480.00,480.00l-128.00,0.00 L 256.00,480.00 L 96.00,480.00 l0.00-512.00 l 384.00,0.00 c 17.696,0.00, 32.00,14.304, 32.00,32.00L 512.00,448.00 C 512.00,465.696, 497.696,480.00, 480.00,480.00z M 444.992,273.504l-73.664-79.648
		l 28.80-96.064c 2.144-7.20, 0.448-11.424-3.776-11.424c-1.60,0.00-3.584,0.672-5.952,1.888L 304.00,136.832l-85.472-48.512
		C 216.224,87.04, 214.208,86.40, 212.672,86.40c-4.288,0.00-5.984,4.32-3.936,11.488l 27.904,95.936l-73.60,79.648C 157.248,281.664, 160.00,288.384, 169.312,288.416
		l 84.192,0.48l 41.856,78.784C 297.696,372.128, 300.928,374.40, 304.00,374.40c 3.168,0.00, 6.304-2.272, 8.672-6.752l 41.888-78.784l 84.16-0.48
		C 448.00,288.384, 450.784,281.664, 444.992,273.504z"  />
<glyph unicode="&#xe061;" d="M 480.00,480.00L 96.00,480.00 C 78.40,480.00, 64.00,465.60, 64.00,448.00L 32.00,448.00 C 14.40,448.00,0.00,433.60,0.00,416.00s 14.40-32.00, 32.00-32.00l 32.00,0.00 l0.00-32.00 
		L 32.00,352.00 C 14.40,352.00,0.00,337.60,0.00,320.00s 14.40-32.00, 32.00-32.00l 32.00,0.00 l0.00-32.00 L 32.00,256.00 C 14.40,256.00,0.00,241.60,0.00,224.00s 14.40-32.00, 32.00-32.00l 32.00,0.00 l0.00-32.00 L 32.00,160.00 c-17.60,0.00-32.00-14.40-32.00-32.00s 14.40-32.00, 32.00-32.00l 32.00,0.00 l0.00-32.00 L 32.00,64.00 
		c-17.60,0.00-32.00-14.40-32.00-32.00s 14.40-32.00, 32.00-32.00l 32.00,0.00 c0.00-17.60, 14.40-32.00, 32.00-32.00l 384.00,0.00 c 17.60,0.00, 32.00,14.40, 32.00,32.00L 512.00,448.00 C 512.00,465.60, 497.60,480.00, 480.00,480.00z M 400.00,224.00l-224.00,0.00 
		C 167.168,224.00, 160.00,231.168, 160.00,240.00l0.00,32.00 C 160.00,280.832, 167.168,288.00, 176.00,288.00l 224.00,0.00 C 408.832,288.00, 416.00,280.832, 416.00,272.00l0.00-32.00 C 416.00,231.168, 408.832,224.00, 400.00,224.00z M 400.00,320.00l-224.00,0.00 
		C 167.168,320.00, 160.00,327.168, 160.00,336.00l0.00,32.00 C 160.00,376.832, 167.168,384.00, 176.00,384.00l 224.00,0.00 C 408.832,384.00, 416.00,376.832, 416.00,368.00l0.00-32.00 C 416.00,327.168, 408.832,320.00, 400.00,320.00z"  />
<glyph unicode="&#xe062;" d="M 480.00,480.00L 96.00,480.00 C 78.40,480.00, 64.00,465.60, 64.00,448.00L 32.00,448.00 C 14.40,448.00,0.00,433.60,0.00,416.00s 14.40-32.00, 32.00-32.00l 32.00,0.00 l0.00-32.00 
		L 32.00,352.00 C 14.40,352.00,0.00,337.60,0.00,320.00s 14.40-32.00, 32.00-32.00l 32.00,0.00 l0.00-32.00 L 32.00,256.00 C 14.40,256.00,0.00,241.60,0.00,224.00s 14.40-32.00, 32.00-32.00l 32.00,0.00 l0.00-32.00 L 32.00,160.00 c-17.60,0.00-32.00-14.40-32.00-32.00s 14.40-32.00, 32.00-32.00l 32.00,0.00 l0.00-32.00 L 32.00,64.00 
		c-17.60,0.00-32.00-14.40-32.00-32.00s 14.40-32.00, 32.00-32.00l 32.00,0.00 c0.00-17.60, 14.40-32.00, 32.00-32.00l 384.00,0.00 c 17.60,0.00, 32.00,14.40, 32.00,32.00L 512.00,448.00 C 512.00,465.60, 497.60,480.00, 480.00,480.00z M 400.00,288.00l-224.00,0.00 
		C 167.168,288.00, 160.00,295.168, 160.00,304.00l0.00,32.00 C 160.00,344.832, 167.168,352.00, 176.00,352.00l 224.00,0.00 C 408.832,352.00, 416.00,344.832, 416.00,336.00l0.00-32.00 C 416.00,295.168, 408.832,288.00, 400.00,288.00z M 400.00,192.00l-224.00,0.00 
		C 167.168,192.00, 160.00,199.168, 160.00,208.00l0.00,32.00 C 160.00,248.832, 167.168,256.00, 176.00,256.00l 224.00,0.00 C 408.832,256.00, 416.00,248.832, 416.00,240.00l0.00-32.00 C 416.00,199.168, 408.832,192.00, 400.00,192.00z M 400.00,96.00l-224.00,0.00 
		C 167.168,96.00, 160.00,103.168, 160.00,112.00l0.00,32.00 C 160.00,152.832, 167.168,160.00, 176.00,160.00l 224.00,0.00 c 8.832,0.00, 16.00-7.168, 16.00-16.00l0.00-32.00 C 416.00,103.168, 408.832,96.00, 400.00,96.00z"  />
<glyph unicode="&#xe063;" d="M 480.00,480.00L 96.00,480.00 C 78.304,480.00, 64.00,465.696, 64.00,448.00L 32.00,448.00 
	C 14.304,448.00,0.00,433.696,0.00,416.00s 14.304-32.00, 32.00-32.00l 32.00,0.00 l0.00-32.00 L 32.00,352.00 C 14.304,352.00,0.00,337.696,0.00,320.00s 14.304-32.00, 32.00-32.00l 32.00,0.00 l0.00-32.00 L 32.00,256.00 C 14.304,256.00,0.00,241.696,0.00,224.00s 14.304-32.00, 32.00-32.00l 32.00,0.00 l0.00-32.00 L 32.00,160.00 
	c-17.696,0.00-32.00-14.304-32.00-32.00s 14.304-32.00, 32.00-32.00l 32.00,0.00 l0.00-32.00 L 32.00,64.00 c-17.696,0.00-32.00-14.304-32.00-32.00s 14.304-32.00, 32.00-32.00l 32.00,0.00 c0.00-17.696, 14.304-32.00, 32.00-32.00l 384.00,0.00 c 17.696,0.00, 32.00,14.304, 32.00,32.00L 512.00,448.00 
	C 512.00,465.696, 497.696,480.00, 480.00,480.00z M 208.00,96.00l-32.00,0.00 C 167.168,96.00, 160.00,103.168, 160.00,112.00l0.00,32.00 C 160.00,152.832, 167.168,160.00, 176.00,160.00l 32.00,0.00 C 216.832,160.00, 224.00,152.832, 224.00,144.00l0.00-32.00 
	C 224.00,103.168, 216.832,96.00, 208.00,96.00z M 208.00,192.00l-32.00,0.00 C 167.168,192.00, 160.00,199.168, 160.00,208.00l0.00,32.00 C 160.00,248.832, 167.168,256.00, 176.00,256.00l 32.00,0.00 C 216.832,256.00, 224.00,248.832, 224.00,240.00l0.00-32.00 
	C 224.00,199.168, 216.832,192.00, 208.00,192.00z M 208.00,288.00l-32.00,0.00 C 167.168,288.00, 160.00,295.168, 160.00,304.00l0.00,32.00 C 160.00,344.832, 167.168,352.00, 176.00,352.00l 32.00,0.00 C 216.832,352.00, 224.00,344.832, 224.00,336.00l0.00-32.00 
	C 224.00,295.168, 216.832,288.00, 208.00,288.00z M 400.00,96.00l-128.00,0.00 C 263.168,96.00, 256.00,103.168, 256.00,112.00l0.00,32.00 C 256.00,152.832, 263.168,160.00, 272.00,160.00l 128.00,0.00 c 8.832,0.00, 16.00-7.168, 16.00-16.00l0.00-32.00 
	C 416.00,103.168, 408.832,96.00, 400.00,96.00z M 400.00,192.00l-128.00,0.00 C 263.168,192.00, 256.00,199.168, 256.00,208.00l0.00,32.00 C 256.00,248.832, 263.168,256.00, 272.00,256.00l 128.00,0.00 C 408.832,256.00, 416.00,248.832, 416.00,240.00l0.00-32.00 
	C 416.00,199.168, 408.832,192.00, 400.00,192.00z M 400.00,288.00l-128.00,0.00 C 263.168,288.00, 256.00,295.168, 256.00,304.00l0.00,32.00 C 256.00,344.832, 263.168,352.00, 272.00,352.00l 128.00,0.00 C 408.832,352.00, 416.00,344.832, 416.00,336.00l0.00-32.00 
	C 416.00,295.168, 408.832,288.00, 400.00,288.00z"  />
<glyph unicode="&#xe064;" d="M 448.00,480.00L 64.00,480.00 C 46.304,480.00, 32.00,465.696, 32.00,448.00l0.00-448.00 c0.00-17.696, 14.304-32.00, 32.00-32.00l 384.00,0.00 c 17.696,0.00, 32.00,14.304, 32.00,32.00L 480.00,448.00 
	C 480.00,465.696, 465.696,480.00, 448.00,480.00z M 128.00,368.00C 128.00,376.832, 135.168,384.00, 144.00,384.00l 160.00,0.00 C 312.832,384.00, 320.00,376.832, 320.00,368.00l0.00-32.00 C 320.00,327.168, 312.832,320.00, 304.00,320.00l-160.00,0.00 
	C 135.168,320.00, 128.00,327.168, 128.00,336.00L 128.00,368.00 z M 320.00,144.00c0.00-8.832-7.168-16.00-16.00-16.00l-160.00,0.00 C 135.168,128.00, 128.00,135.168, 128.00,144.00l0.00,32.00 C 128.00,184.832, 135.168,192.00, 144.00,192.00l 160.00,0.00 
	C 312.832,192.00, 320.00,184.832, 320.00,176.00L 320.00,144.00 z M 384.00,240.00C 384.00,231.168, 376.832,224.00, 368.00,224.00l-224.00,0.00 C 135.168,224.00, 128.00,231.168, 128.00,240.00l0.00,32.00 C 128.00,280.832, 135.168,288.00, 144.00,288.00l 224.00,0.00 
	C 376.832,288.00, 384.00,280.832, 384.00,272.00L 384.00,240.00 z"  />
<glyph unicode="&#xe065;" d="M 448.00,480.00L 64.00,480.00 C 46.304,480.00, 32.00,465.696, 32.00,448.00l0.00-448.00 c0.00-17.696, 14.304-32.00, 32.00-32.00l 384.00,0.00 c 17.696,0.00, 32.00,14.304, 32.00,32.00L 480.00,448.00 
	C 480.00,465.696, 465.696,480.00, 448.00,480.00z M 352.00,112.00c0.00-8.832-7.168-16.00-16.00-16.00l-160.00,0.00 C 167.168,96.00, 160.00,103.168, 160.00,112.00l0.00,32.00 C 160.00,152.832, 167.168,160.00, 176.00,160.00l 160.00,0.00 
	c 8.832,0.00, 16.00-7.168, 16.00-16.00L 352.00,112.00 z M 352.00,208.00C 352.00,199.168, 344.832,192.00, 336.00,192.00l-160.00,0.00 C 167.168,192.00, 160.00,199.168, 160.00,208.00l0.00,32.00 C 160.00,248.832, 167.168,256.00, 176.00,256.00l 160.00,0.00 
	C 344.832,256.00, 352.00,248.832, 352.00,240.00L 352.00,208.00 z M 352.00,304.00C 352.00,295.168, 344.832,288.00, 336.00,288.00l-160.00,0.00 C 167.168,288.00, 160.00,295.168, 160.00,304.00l0.00,32.00 C 160.00,344.832, 167.168,352.00, 176.00,352.00l 160.00,0.00 
	C 344.832,352.00, 352.00,344.832, 352.00,336.00L 352.00,304.00 z"  />
<glyph unicode="&#xe066;" d="M 448.00,480.00L 64.00,480.00 C 46.304,480.00, 32.00,465.696, 32.00,448.00l0.00-448.00 c0.00-17.696, 14.304-32.00, 32.00-32.00l 384.00,0.00 c 17.696,0.00, 32.00,14.304, 32.00,32.00L 480.00,448.00 
	C 480.00,465.696, 465.696,480.00, 448.00,480.00z M 384.00,80.00c0.00-8.832-7.168-16.00-16.00-16.00l-224.00,0.00 C 135.168,64.00, 128.00,71.168, 128.00,80.00l0.00,32.00 C 128.00,120.832, 135.168,128.00, 144.00,128.00l 224.00,0.00 
	c 8.832,0.00, 16.00-7.168, 16.00-16.00L 384.00,80.00 z M 384.00,176.00c0.00-8.832-7.168-16.00-16.00-16.00l-224.00,0.00 C 135.168,160.00, 128.00,167.168, 128.00,176.00l0.00,32.00 C 128.00,216.832, 135.168,224.00, 144.00,224.00l 224.00,0.00 
	C 376.832,224.00, 384.00,216.832, 384.00,208.00L 384.00,176.00 z M 384.00,272.00C 384.00,263.168, 376.832,256.00, 368.00,256.00l-224.00,0.00 C 135.168,256.00, 128.00,263.168, 128.00,272.00l0.00,96.00 C 128.00,376.832, 135.168,384.00, 144.00,384.00l 224.00,0.00 
	C 376.832,384.00, 384.00,376.832, 384.00,368.00L 384.00,272.00 z"  />
<glyph unicode="&#xe067;" d="M0.00,352.00l0.00-352.00 c0.00-17.696, 14.304-32.00, 32.00-32.00l 448.00,0.00 c 17.696,0.00, 32.00,14.304, 32.00,32.00L 512.00,352.00 L0.00,352.00 z M 384.00,112.00c0.00-8.832-7.168-16.00-16.00-16.00l-224.00,0.00 
		C 135.168,96.00, 128.00,103.168, 128.00,112.00l0.00,32.00 C 128.00,152.832, 135.168,160.00, 144.00,160.00l 224.00,0.00 c 8.832,0.00, 16.00-7.168, 16.00-16.00L 384.00,112.00 z M 384.00,208.00C 384.00,199.168, 376.832,192.00, 368.00,192.00l-224.00,0.00 
		C 135.168,192.00, 128.00,199.168, 128.00,208.00l0.00,32.00 C 128.00,248.832, 135.168,256.00, 144.00,256.00l 224.00,0.00 C 376.832,256.00, 384.00,248.832, 384.00,240.00L 384.00,208.00 zM 512.00,448.00c0.00,17.696-14.304,32.00-32.00,32.00l-32.00,0.00 l-128.00,0.00 L 192.00,480.00 L 64.00,480.00 L 32.00,480.00 C 14.304,480.00,0.00,465.696,0.00,448.00l0.00-64.00 l 512.00,0.00 L 512.00,448.00 z"  />
<glyph unicode="&#xe068;" d="M 384.00,448.00c0.00,17.696-14.304,32.00-32.00,32.00L 160.00,480.00 C 142.304,480.00, 128.00,465.696, 128.00,448.00l0.00-96.00 L 32.00,352.00 
	C 14.304,352.00,0.00,337.696,0.00,320.00l0.00-320.00 c0.00-17.696, 14.304-32.00, 32.00-32.00l 448.00,0.00 c 17.696,0.00, 32.00,14.304, 32.00,32.00L 512.00,320.00 c0.00,17.696-14.304,32.00-32.00,32.00l-96.00,0.00 L 384.00,448.00 z M 192.00,416.00l 128.00,0.00 l0.00-64.00 L 192.00,352.00 L 192.00,416.00 z"  />
</font>
</defs>
</svg>
